×

¿Problemas para descargar con Mozilla, EDGE? Deshabilita la opción "Abrir vinculos en una pestaña nueva" tal como lo muestra ésta imagen.

Reunion (2020) REMUX 1080p Latino

209 vistas

Información de Reunion (2020) REMUX 1080p Latino

Datos de la película

  • Calidad: Full 1080p
  • Audio: Español Latino AC3 5.1 WEB-DL - Ingles DTS 5.1 BLURAY
  • Subtitulos: Español Latino SRT- FORZADOS SRT
  • Resolución: 1920x1080p
  • Formato: MKV
  • Codec: H.264
  • Encoder: Melkor
  • Mediainfo: Clic para Mostrar Datos Ver
  • Reunion (2020) REMUX 1080p Latino.mkv
    Format                      : Matroska
    Format version              : Version 4
    File size                   : 18.1 GiB
    Duration                    : 1 h 34 min
    Overall bit rate mode       : Variable
    Overall bit rate            : 27.4 Mb/s
    Movie name                  : Reunion (2020) CinemaniaHDD.Net
    Encoded date                : UTC 2022-01-21 06:22:54
    Writing application         : mkvmerge v56.1.0 ('My Friend') 64-bit
    Writing library             : libebml v1.4.2 + libmatroska v1.6.4
    Attachments                 : CINEMANIAHD.png

    Video
    ID                          : 1
    Format                      : AVC
    Format/Info                 : Advanced Video Codec
    Format profile              : High@L4.1
    Format settings             : CABAC / 4 Ref Frames
    Format settings, CABAC      : Yes
    Format settings, Reference  : 4 frames
    Codec ID                    : V_MPEG4/ISO/AVC
    Duration                    : 1 h 34 min
    Bit rate mode               : Variable
    Bit rate                    : 24.9 Mb/s
    Maximum bit rate            : 37.5 Mb/s
    Width                       : 1 920 pixels
    Height                      : 1 080 pixels
    Display aspect ratio        : 16:9
    Frame rate mode             : Constant
    Frame rate                  : 23.976 (24000/1001) FPS
    Color space                 : YUV
    Chroma subsampling          : 4:2:0
    Bit depth                   : 8 bits
    Scan type                   : Progressive
    Bits/(Pixel*Frame)          : 0.502
    Stream size                 : 16.5 GiB (91%)
    Title                       : REMUX HD1080p [CinemaniaHDD]
    Default                     : Yes
    Forced                      : Yes
    Color range                 : Limited
    Color primaries             : BT.709
    Transfer characteristics    : BT.709
    Matrix coefficients         : BT.709

    Audio #1
    ID                          : 2
    Format                      : AC-3
    Format/Info                 : Audio Coding 3
    Commercial name             : Dolby Digital
    Codec ID                    : A_AC3
    Duration                    : 1 h 34 min
    Bit rate mode               : Constant
    Bit rate                    : 448 kb/s
    Channel(s)                  : 6 channels
    Channel layout              : L R C LFE Ls Rs
    Sampling rate               : 48.0 kHz
    Frame rate                  : 31.250 FPS (1536 SPF)
    Compression mode            : Lossy
    Stream size                 : 304 MiB (2%)
    Title                       : Español Latino [CinemaniaHDD]
    Language                    : Spanish
    Service kind                : Complete Main
    Default                     : Yes
    Forced                      : Yes

    Audio #2
    ID                          : 3
    Format                      : DTS XLL
    Format/Info                 : Digital Theater Systems
    Commercial name             : DTS-HD Master Audio
    Codec ID                    : A_DTS
    Duration                    : 1 h 34 min
    Bit rate mode               : Variable
    Bit rate                    : 1 968 kb/s
    Channel(s)                  : 6 channels
    Channel layout              : C L R Ls Rs LFE
    Sampling rate               : 48.0 kHz
    Frame rate                  : 93.750 FPS (512 SPF)
    Bit depth                   : 16 bits
    Compression mode            : Lossless
    Stream size                 : 1.30 GiB (7%)
    Title                       : Ingles [CinemaniaHDD]
    Language                    : English
    Default                     : No
    Forced                      : No

    Text #1
    ID                          : 4
    Format                      : UTF-8
    Codec ID                    : S_TEXT/UTF8
    Codec ID/Info               : UTF-8 Plain Text
    Duration                    : 1 h 12 min
    Bit rate                    : 0 b/s
    Count of elements           : 13
    Stream size                 : 207 Bytes (0%)
    Title                       : Forzados-SRT [CinemaniaHDD]
    Language                    : Spanish
    Default                     : Yes
    Forced                      : Yes

    Text #2
    ID                          : 5
    Format                      : UTF-8
    Codec ID                    : S_TEXT/UTF8
    Codec ID/Info               : UTF-8 Plain Text
    Duration                    : 1 h 27 min
    Bit rate                    : 44 b/s
    Count of elements           : 963
    Stream size                 : 28.9 KiB (0%)
    Title                       : Español-SRT [CinemaniaHDD]
    Language                    : Spanish
    Default                     : No
    Forced                      : No

    Text #3
    ID                          : 6
    Format                      : PGS
    Muxing mode                 : zlib
    Codec ID                    : S_HDMV/PGS
    Codec ID/Info               : Picture based subtitle format used on BDs/HD-DVDs
    Duration                    : 1 h 29 min
    Bit rate                    : 38.2 kb/s
    Count of elements           : 2508
    Stream size                 : 24.5 MiB (0%)
    Title                       : Ingles [CinemaniaHDD]
    Language                    : English
    Default                     : No
    Forced                      : No

    Menu
    00:00:00.000                : What's Going On?
    00:04:14.588                : Basically Done
    00:08:09.823                : You Should Rest
    00:13:06.911                : Modern Science In The Middle Ages
    00:17:04.982                : A Deep Sense of Peace
    00:22:16.585                : That Was a Beautiful Summer
    00:26:44.144                : We're Gonna Make a Better Family
    00:29:47.244                : Give it To Me
    00:33:46.024                : What Have You Done?
    00:38:19.547                : Black Magic
    00:42:01.561                : My Baby
    00:46:57.356                : I Don't Know What's Wrong With Me
    00:53:01.136                : We'll Find It
    00:57:38.080                : Can You Help Me With Jack
    01:02:54.896                : A Private Conversation
    01:06:52.383                : I'm Missing a Piece
    01:11:23.654                : I Remember What Happened
    01:15:23.602                : Ellie
    01:18:39.048                : You're Making a Scene
    01:21:53.992                : Think About The Baby
    01:28:13.872                : I Wanna Get Out of Here
    01:30:10.071                : Closing Credits

  • Peso: 18.1 GiB

Sinopsis

Descargar Reunion (2020) REMUX 1080p Latino. Una mujer embarazada regresa a la antigua casa familiar de sus abuelos recientemente fallecidos para pasar tiempo con su madre separada. Lo que comienza como una reunión tenue se vuelve lentamente aterradora.

Ficha técnica

  • Titulo original: Reunion
  • Fecha de lanzamiento: 05-11-2020 (New Zealand)
  • Director: Jake Mahaffy
  • Género: Remux, Terror

Video trailer de la película

Enlaces de descarga

Rip de Bluray

Descargar Reunion (2020) REMUX 1080p Latino




Aportes de DPeliculasHDmega la pass es:dpeliculashdmega.org Aportes de CinemaniaHD la pass es:cinemaniahdd.com
Guardado en : Remux , Terror

Películas relacionadas

  • Paradise Highway (2022) REMUX 1080p Latino

    Paradise Highway (2022) REMUX 1080p Latino

    2022
    Paradise Highway (2022) REMUX 1080p Latino

    1h 55m 2022

    Descargar Paradise Highway (2022) REMUX 1080p Latino. Un camionero se ha visto obligado a pasar de contrabando...

    Director: Anna Gutto

    Género: Crimen

    Actores: Xavier Scott Evans

  • M3GAN (2023) AMZN WEB-DL 4K UHD HDR Latino

    M3GAN (2023) AMZN WEB-DL 4K UHD HDR Latino

    2022
    M3GAN (2023) AMZN WEB-DL 4K UHD HDR Latino

    1h 42m 2022

    Descargar M3GAN (2023) AMZN WEB-DL 4K UHD HDR Latino. Cuando Gemma se convierte en la cuidadora de su...

    Director: Stephen W. Moore

    Género: 4K HDR

    Actores: Violet McGraw

  • M3GAN (2022) MA WEB-DL 1080p Latino

    M3GAN (2022) MA WEB-DL 1080p Latino

    2022
    M3GAN (2022) MA WEB-DL 1080p Latino

    1h 42m 2022

    Descargar M3GAN (2022) MA WEB-DL 1080p Latino. Cuando Gemma se convierte en la cuidadora de su sobrina...

    Director: Stephen W. Moore

    Género: Ciencia ficción

    Actores: Violet McGraw

  • Mar de sangre (2022) WEB-DL 1080p Latino

    Mar de sangre (2022) WEB-DL 1080p Latino

    2022
    Mar de sangre (2022) WEB-DL 1080p Latino

    1h 27m 2022

    Descargar Mar de sangre (2022) WEB-DL 1080p Latino. Un grupo de amigos que disfrutan de un fin de semana...

    Director: James Nunn

    Género: Acción

    Actores: Thomas Michael Flynn

  • Noche sin paz (2022) REMUX 1080p Latino

    Noche sin paz (2022) REMUX 1080p Latino

    2022
    Noche sin paz (2022) REMUX 1080p Latino

    1h 41m 2022

    Descargar Noche sin paz (2022) REMUX 1080p Latino. Cuando un equipo de mercenarios irrumpe en Nochebuena...

    Director: Tyshana Hobson

    Género: Acción

    Actores: Yoon Cha-Lee

descargar Reunion (2020) REMUX 1080p Latino Full 1080p 1080p gratis, Reunion (2020) REMUX 1080p Latino Full 1080p mega 1 link, Reunion (2020) REMUX 1080p Latino Full 1080p pelicula completa, descargar Reunion (2020) REMUX 1080p Latino Full 1080p gratis en mega.

Reunion (2020) REMUX 1080p Latino pelicula full hd, Reunion (2020) REMUX 1080p Latino mega latino, Reunion (2020) REMUX 1080p Latino 4k latino, Reunion (2020) REMUX 1080p Latino pelicula completa, Reunion (2020) REMUX 1080p Latino descargar gratis, descargar Reunion (2020) REMUX 1080p Latino pelicula latino, Reunion (2020) REMUX 1080p Latino 1 link mega, Reunion (2020) REMUX 1080p Latino 1 link google drive, Reunion (2020) REMUX 1080p Latino hd 1080p latino.
Comentarios 0