×

¿Problemas para descargar con Mozilla, EDGE? Deshabilita la opción "Abrir vinculos en una pestaña nueva" tal como lo muestra ésta imagen.

Retribution (2023) WEB-DL 4K HDR Latino – CMHDD

87 vistas

Información de Retribution (2023) WEB-DL 4K HDR Latino – CMHDD

Datos de la película

  • Calidad: 4K HDR
  • Audio: Español Latino AC3 2.0 WEB-DL - Ingles AC3 5.1 BLURAY
  • Subtitulos: Español Latino SRT- FORZADOS SRT
  • Resolución: 3840x1600p
  • Formato: MKV
  • Codec: H.264
  • Encoder: Dracarys
  • Mediainfo: Clic para Mostrar Datos Ver
  • Format                      : Matroska
    Format version              : Version 4
    File size                   : 16.1 GiB
    Duration                    : 1 h 31 min
    Overall bit rate            : 25.2 Mb/s
    Movie name                  : Retribution (2023) WEB-DL 4K HDR Latino - CMHDD
    Encoded date                : UTC 2023-12-20 21:31:16
    Writing application         : mkvmerge v47.0.0 ('Black Flag') 64-bit
    Writing library             : libebml v1.3.10 + libmatroska v1.5.2

    Video
    ID                          : 1
    Format                      : HEVC
    Format/Info                 : High Efficiency Video Coding
    Format profile              : Main 10@L5@High
    HDR format                  : SMPTE ST 2094 App 4, Version 1, HDR10+ Profile B compatible
    Codec ID                    : V_MPEGH/ISO/HEVC
    Duration                    : 1 h 31 min
    Bit rate                    : 24.2 Mb/s
    Width                       : 3 832 pixels
    Height                      : 1 600 pixels
    Display aspect ratio        : 2.40:1
    Frame rate mode             : Constant
    Frame rate                  : 23.976 FPS
    Color space                 : YUV
    Chroma subsampling          : 4:2:0 (Type 2)
    Bit depth                   : 10 bits
    Bits/(Pixel*Frame)          : 0.165
    Stream size                 : 15.4 GiB (96%)
    Default                     : Yes
    Forced                      : No
    Color range                 : Limited
    Color primaries             : BT.2020
    Transfer characteristics    : PQ
    Matrix coefficients         : BT.2020 non-constant
    Mastering display color pri : BT.2020
    Mastering display luminance : min: 0.0050 cd/m2, max: 1000 cd/m2
    Maximum Content Light Level : 903 cd/m2
    Maximum Frame-Average Light : 379 cd/m2

    Audio #1
    ID                          : 2
    Format                      : AC-3
    Format/Info                 : Audio Coding 3
    Commercial name             : Dolby Digital
    Codec ID                    : A_AC3
    Duration                    : 1 h 31 min
    Bit rate mode               : Constant
    Bit rate                    : 224 kb/s
    Channel(s)                  : 2 channels
    Channel layout              : L R
    Sampling rate               : 48.0 kHz
    Frame rate                  : 31.250 FPS (1536 SPF)
    Compression mode            : Lossy
    Stream size                 : 146 MiB (1%)
    Language                    : Spanish
    Service kind                : Complete Main
    Default                     : Yes
    Forced                      : Yes

    Audio #2
    ID                          : 3
    Format                      : E-AC-3 JOC
    Format/Info                 : Enhanced AC-3 with Joint Object Coding
    Commercial name             : Dolby Digital Plus with Dolby Atmos
    Codec ID                    : A_EAC3
    Duration                    : 1 h 31 min
    Bit rate mode               : Constant
    Bit rate                    : 768 kb/s
    Channel(s)                  : 6 channels
    Channel layout              : L R C LFE Ls Rs
    Sampling rate               : 48.0 kHz
    Frame rate                  : 31.250 FPS (1536 SPF)
    Compression mode            : Lossy
    Stream size                 : 501 MiB (3%)
    Language                    : English
    Service kind                : Complete Main
    Default                     : No
    Forced                      : No
    Complexity index            : 16
    Number of dynamic objects   : 15
    Bed channel count           : 1 channel
    Bed channel configuration   : LFE

    Text #1
    ID                          : 4
    Format                      : UTF-8
    Codec ID                    : S_TEXT/UTF8
    Codec ID/Info               : UTF-8 Plain Text
    Duration                    : 1 h 10 min
    Bit rate                    : 0 b/s
    Frame rate                  : 0.003 FPS
    Count of elements           : 11
    Stream size                 : 347 Bytes (0%)
    Title                       : Forzados
    Language                    : Spanish
    Default                     : Yes
    Forced                      : Yes

    Text #2
    ID                          : 5
    Format                      : UTF-8
    Codec ID                    : S_TEXT/UTF8
    Codec ID/Info               : UTF-8 Plain Text
    Duration                    : 1 h 23 min
    Bit rate                    : 79 b/s
    Frame rate                  : 0.219 FPS
    Count of elements           : 1089
    Stream size                 : 48.3 KiB (0%)
    Language                    : Spanish
    Default                     : No
    Forced                      : No

     

  • Peso: 16.1 GiB

Sinopsis

Un ejecutivo de un banco recibe, mientras conduce a sus hijos a la escuela, una amenaza de bomba dentro de su auto, el cual explotará si se detienen o salen del vehículo antes de conseguir una elevada suma de dinero. Remake de la película española de 2015 «El Desconocido».

Ficha técnica

Video trailer de la película

Enlaces de descarga

Rip de Bluray

Descargar Retribution (2023) WEB-DL 4K HDR Latino – CMHDD




Aportes de DPeliculasHDmega la pass es:dpeliculashdmega.org Aportes de CinemaniaHD la pass es:cinemaniahdd.com Aportes recientes:cinemaniahdd.net
Guardado en : Acción , Crimen , Suspenso

Películas relacionadas

descargar Retribution (2023) WEB-DL 4K HDR Latino – CMHDD 4K HDR 1080p gratis, Retribution (2023) WEB-DL 4K HDR Latino – CMHDD 4K HDR mega 1 link, Retribution (2023) WEB-DL 4K HDR Latino – CMHDD 4K HDR pelicula completa, descargar Retribution (2023) WEB-DL 4K HDR Latino – CMHDD 4K HDR gratis en mega.

Retribution (2023) WEB-DL 4K HDR Latino – CMHDD pelicula full hd, Retribution (2023) WEB-DL 4K HDR Latino – CMHDD mega latino, Retribution (2023) WEB-DL 4K HDR Latino – CMHDD 4k latino, Retribution (2023) WEB-DL 4K HDR Latino – CMHDD pelicula completa, Retribution (2023) WEB-DL 4K HDR Latino – CMHDD descargar gratis, descargar Retribution (2023) WEB-DL 4K HDR Latino – CMHDD pelicula latino, Retribution (2023) WEB-DL 4K HDR Latino – CMHDD 1 link mega, Retribution (2023) WEB-DL 4K HDR Latino – CMHDD 1 link google drive, Retribution (2023) WEB-DL 4K HDR Latino – CMHDD hd 1080p latino.
Comentarios 0