×

¿Problemas para descargar con Mozilla, EDGE? Deshabilita la opción "Abrir vinculos en una pestaña nueva" tal como lo muestra ésta imagen.

Resistencia (2023) AMZN WEB-DL 4K UHD HDR Latino

244 vistas

Información de Resistencia (2023) AMZN WEB-DL 4K UHD HDR Latino

Datos de la película

  • Calidad: WEBDL
  • Audio: Español Latino AC3 5.1 WEB-DL - Ingles AC3 5.1 WEB-DL
  • Subtitulos: Español Latino SRT- FORZADOS SRT
  • Resolución: 3840x2160p
  • Formato: MKV
  • Codec: HEVC
  • Encoder: Melkor
  • Mediainfo: Clic para Mostrar Datos Ver
  • Resistencia (2023) AMZN WEB UHD HDR Latino.mkv
    Format                      : Matroska
    Format version              : Version 4
    File size                   : 15.5 GiB
    Duration                    : 2 h 15 min
    Overall bit rate            : 16.4 Mb/s
    Movie name                  : The Creator (2023) CinemaniaHDD.Net
    Encoded date                : UTC 2023-11-13 22:19:27
    Writing application         : mkvmerge v56.1.0 ('My Friend') 64-bit
    Writing library             : libebml v1.4.2 + libmatroska v1.6.4
    Attachments                 : CINEMANIAHD.png
    Site                        : CinemaniaHDD.Net
    Uploader                    : Melkor

    Video
    ID                          : 1
    Format                      : HEVC
    Format/Info                 : High Efficiency Video Coding
    Format profile              : Main 10@L5@Main
    HDR format                  : SMPTE ST 2094 App 4, Version 1, HDR10+ Profile B compatible
    Codec ID                    : V_MPEGH/ISO/HEVC
    Duration                    : 2 h 15 min
    Bit rate                    : 14.5 Mb/s
    Width                       : 3 840 pixels
    Height                      : 2 160 pixels
    Display aspect ratio        : 16:9
    Frame rate mode             : Constant
    Frame rate                  : 24.000 FPS
    Color space                 : YUV
    Chroma subsampling          : 4:2:0
    Bit depth                   : 10 bits
    Bits/(Pixel*Frame)          : 0.073
    Stream size                 : 13.7 GiB (88%)
    Title                       : Web 2160p HDR [CinemaniaHDD]
    Language                    : English
    Default                     : Yes
    Forced                      : No
    Color range                 : Limited
    Color primaries             : BT.2020
    Transfer characteristics    : PQ
    Matrix coefficients         : BT.2020 non-constant
    Mastering display color pri : Display P3
    Mastering display luminance : min: 0.0001 cd/m2, max: 1000 cd/m2
    Maximum Content Light Level : 749 cd/m2
    Maximum Frame-Average Light : 555 cd/m2

    Audio #1
    ID                          : 2
    Format                      : AC-3
    Format/Info                 : Audio Coding 3
    Commercial name             : Dolby Digital
    Codec ID                    : A_AC3
    Duration                    : 2 h 13 min
    Bit rate mode               : Constant
    Bit rate                    : 640 kb/s
    Channel(s)                  : 6 channels
    Channel layout              : L R C LFE Ls Rs
    Sampling rate               : 48.0 kHz
    Frame rate                  : 31.250 FPS (1536 SPF)
    Compression mode            : Lossy
    Stream size                 : 611 MiB (4%)
    Title                       : Español Latino AC3 [CinemaniaHDD]
    Language                    : Spanish
    Service kind                : Complete Main
    Default                     : Yes
    Forced                      : Yes

    Audio #2
    ID                          : 3
    Format                      : E-AC-3
    Format/Info                 : Enhanced AC-3
    Commercial name             : Dolby Digital Plus
    Format settings             : Dolby Surround EX
    Codec ID                    : A_EAC3
    Duration                    : 2 h 13 min
    Bit rate mode               : Constant
    Bit rate                    : 640 kb/s
    Channel(s)                  : 8 channels
    Channel layout              : L R C LFE Ls Rs Lb Rb
    Sampling rate               : 48.0 kHz
    Frame rate                  : 31.250 FPS (1536 SPF)
    Compression mode            : Lossy
    Stream size                 : 611 MiB (4%)
    Title                       : Español Latino EAC3 [CinemaniaHDD]
    Language                    : Spanish
    Service kind                : Complete Main
    Default                     : No
    Forced                      : No

    Audio #3
    ID                          : 4
    Format                      : E-AC-3
    Format/Info                 : Enhanced AC-3
    Commercial name             : Dolby Digital Plus
    Codec ID                    : A_EAC3
    Duration                    : 2 h 15 min
    Bit rate mode               : Constant
    Bit rate                    : 640 kb/s
    Channel(s)                  : 6 channels
    Channel layout              : L R C LFE Ls Rs
    Sampling rate               : 48.0 kHz
    Frame rate                  : 31.250 FPS (1536 SPF)
    Compression mode            : Lossy
    Stream size                 : 622 MiB (4%)
    Title                       : Ingles [CinemaniaHDD]
    Language                    : English
    Service kind                : Complete Main
    Default                     : No
    Forced                      : No

    Text #1
    ID                          : 5
    Format                      : UTF-8
    Codec ID                    : S_TEXT/UTF8
    Codec ID/Info               : UTF-8 Plain Text
    Duration                    : 1 h 57 min
    Bit rate                    : 2 b/s
    Count of elements           : 76
    Stream size                 : 1.80 KiB (0%)
    Title                       : Forzados-SRT [CinemaniaHDD]
    Language                    : Spanish
    Default                     : Yes
    Forced                      : Yes

    Text #2
    ID                          : 6
    Format                      : UTF-8
    Codec ID                    : S_TEXT/UTF8
    Codec ID/Info               : UTF-8 Plain Text
    Duration                    : 2 h 2 min
    Bit rate                    : 41 b/s
    Count of elements           : 1412
    Stream size                 : 37.1 KiB (0%)
    Title                       : Español-SRT [CinemaniaHDD]
    Language                    : Spanish
    Default                     : No
    Forced                      : No

    Text #3
    ID                          : 7
    Format                      : UTF-8
    Codec ID                    : S_TEXT/UTF8
    Codec ID/Info               : UTF-8 Plain Text
    Duration                    : 2 h 1 min
    Bit rate                    : 42 b/s
    Count of elements           : 1443
    Stream size                 : 37.7 KiB (0%)
    Title                       : Ingles-SRT [CinemaniaHDD]
    Language                    : English
    Default                     : No
    Forced                      : No

  • Peso: 15.5 GiB

Sinopsis

Descargar Resistencia (2023) AMZN WEB-DL 4K UHD HDR Latino. En medio de una futura guerra entre la raza humana y las fuerzas de la inteligencia artificial, Joshua, un curtido ex agente de las fuerzas especiales que sufre por la desaparición de su esposa, es reclutado para cazar y matar al Creador, el arquitecto de IA avanzada que ha desarrollado un arma misteriosa con el poder de poner fin a la guerra, e incluso a toda la humanidad. Joshua y su equipo de agentes de élite viajan a través de las líneas enemigas hasta el corazón oscuro del territorio ocupado por la IA. Una vez allí, descubren que el arma que acabará con el mundo y que les han ordenado destruir es una IA que ha adoptado la forma de una niña pequeña.

Ficha técnica

Video trailer de la película

Enlaces de descarga

Rip de Bluray

Descargar Resistencia (2023) AMZN WEB-DL 4K UHD HDR Latino




Aportes de DPeliculasHDmega la pass es:dpeliculashdmega.org Aportes de CinemaniaHD la pass es:cinemaniahdd.com Aportes recientes:cinemaniahdd.net

Películas relacionadas

descargar Resistencia (2023) AMZN WEB-DL 4K UHD HDR Latino WEBDL 1080p gratis, Resistencia (2023) AMZN WEB-DL 4K UHD HDR Latino WEBDL mega 1 link, Resistencia (2023) AMZN WEB-DL 4K UHD HDR Latino WEBDL pelicula completa, descargar Resistencia (2023) AMZN WEB-DL 4K UHD HDR Latino WEBDL gratis en mega.

Resistencia (2023) AMZN WEB-DL 4K UHD HDR Latino pelicula full hd, Resistencia (2023) AMZN WEB-DL 4K UHD HDR Latino mega latino, Resistencia (2023) AMZN WEB-DL 4K UHD HDR Latino 4k latino, Resistencia (2023) AMZN WEB-DL 4K UHD HDR Latino pelicula completa, Resistencia (2023) AMZN WEB-DL 4K UHD HDR Latino descargar gratis, descargar Resistencia (2023) AMZN WEB-DL 4K UHD HDR Latino pelicula latino, Resistencia (2023) AMZN WEB-DL 4K UHD HDR Latino 1 link mega, Resistencia (2023) AMZN WEB-DL 4K UHD HDR Latino 1 link google drive, Resistencia (2023) AMZN WEB-DL 4K UHD HDR Latino hd 1080p latino.
Comentarios 0