×

¿Problemas para descargar con Mozilla, EDGE? Deshabilita la opción "Abrir vinculos en una pestaña nueva" tal como lo muestra ésta imagen.

Resistencia (2023) PLACEBO Full HD 1080p Latino

276 vistas

Información de Resistencia (2023) PLACEBO Full HD 1080p Latino

Datos de la película

  • Calidad: Full 1080p
  • Audio: Español Latino AC3 5.1 BLURAY - Ingles DTS 5.1 BLURAY
  • Subtitulos: Español Latino PGS - Ingles PGS
  • Resolución: 1920x1080p
  • Formato: MKV
  • Codec: H.264
  • Encoder: Melkor
  • Mediainfo: Clic para Mostrar Datos Ver
  • Resistencia (2023) PLACEBO 1080p Latino.mkv
    Format                      : Matroska
    Format version              : Version 4
    File size                   : 9.53 GiB
    Duration                    : 2 h 13 min
    Overall bit rate            : 10.2 Mb/s
    Movie name                  : The Creator (2023) CinemaniaHDD.Net
    Encoded date                : UTC 2023-12-07 16:36:05
    Writing application         : mkvmerge v56.1.0 ('My Friend') 64-bit
    Writing library             : libebml v1.4.2 + libmatroska v1.6.4
    Attachments                 : CINEMANIAHD.png / CINEMANIAHD.png
    Site                        : CinemaniaHDD.Net
    Uploader                    : Melkor

    Video
    ID                          : 1
    Format                      : AVC
    Format/Info                 : Advanced Video Codec
    Format profile              : High@L4.1
    Format settings             : CABAC / 4 Ref Frames
    Format settings, CABAC      : Yes
    Format settings, Reference  : 4 frames
    Codec ID                    : V_MPEG4/ISO/AVC
    Duration                    : 2 h 13 min
    Bit rate                    : 8 026 kb/s
    Width                       : 1 920 pixels
    Height                      : 1 080 pixels
    Display aspect ratio        : 16:9
    Frame rate mode             : Constant
    Frame rate                  : 23.976 (24000/1001) FPS
    Color space                 : YUV
    Chroma subsampling          : 4:2:0
    Bit depth                   : 8 bits
    Scan type                   : Progressive
    Bits/(Pixel*Frame)          : 0.161
    Stream size                 : 7.48 GiB (79%)
    Title                       : Full HD1080p [CinemaniaHDD]
    Writing library             : x264 core 163 r3059 b684ebe0
    Encoding settings           : cabac=1 / ref=4 / deblock=1:0:0 / analyse=0x3:0x133 / me=tesa / subme=11 / psy=1 / psy_rd=1.00:0.00 / mixed_ref=1 / me_range=24 / chroma_me=1 / trellis=2 / 8x8dct=1 / cqm=0 / deadzone=21,11 / fast_pskip=0 / chroma_qp_offset=-2 / threads=24 / lookahead_threads=6 / sliced_threads=0 / nr=0 / decimate=1 / interlaced=0 / bluray_compat=0 / constrained_intra=0 / bframes=16 / b_pyramid=2 / b_adapt=2 / b_bias=0 / direct=3 / weightb=1 / open_gop=0 / weightp=2 / keyint=240 / keyint_min=24 / scenecut=40 / intra_refresh=0 / rc_lookahead=60 / rc=crf / mbtree=1 / crf=19.0 / qcomp=0.60 / qpmin=0 / qpmax=69 / qpstep=4 / vbv_maxrate=62500 / vbv_bufsize=78125 / crf_max=0.0 / nal_hrd=none / filler=0 / ip_ratio=1.40 / aq=1:1.00
    Default                     : Yes
    Forced                      : Yes
    Color range                 : Limited
    Color primaries             : BT.709
    Transfer characteristics    : BT.709
    Matrix coefficients         : BT.709

    Audio #1
    ID                          : 2
    ID in the original source m : 4355 (0x1103)
    Format                      : AC-3
    Format/Info                 : Audio Coding 3
    Commercial name             : Dolby Digital
    Codec ID                    : A_AC3
    Duration                    : 2 h 13 min
    Bit rate mode               : Constant
    Bit rate                    : 640 kb/s
    Channel(s)                  : 6 channels
    Channel layout              : L R C LFE Ls Rs
    Sampling rate               : 48.0 kHz
    Frame rate                  : 31.250 FPS (1536 SPF)
    Compression mode            : Lossy
    Stream size                 : 611 MiB (6%)
    Title                       : Español Latino [CinemaniaHDD]
    Language                    : Spanish
    Service kind                : Complete Main
    Default                     : Yes
    Forced                      : Yes
    Original source medium      : Blu-ray

    Audio #2
    ID                          : 3
    Format                      : DTS
    Format/Info                 : Digital Theater Systems
    Codec ID                    : A_DTS
    Duration                    : 2 h 13 min
    Bit rate mode               : Constant
    Bit rate                    : 1 509 kb/s
    Channel(s)                  : 6 channels
    Channel layout              : C L R Ls Rs LFE
    Sampling rate               : 48.0 kHz
    Frame rate                  : 93.750 FPS (512 SPF)
    Bit depth                   : 24 bits
    Compression mode            : Lossy
    Stream size                 : 1.41 GiB (15%)
    Title                       : Ingles [CinemaniaHDD]
    Language                    : English
    Default                     : No
    Forced                      : No

    Text #1
    ID                          : 4
    ID in the original source m : 4613 (0x1205)
    Format                      : PGS
    Muxing mode                 : zlib
    Codec ID                    : S_HDMV/PGS
    Codec ID/Info               : Picture based subtitle format used on BDs/HD-DVDs
    Duration                    : 1 h 58 min
    Bit rate                    : 1 648 b/s
    Count of elements           : 152
    Stream size                 : 1.39 MiB (0%)
    Title                       : Forzados-PGS [CinemaniaHDD]
    Language                    : Spanish
    Default                     : No
    Forced                      : No
    Original source medium      : Blu-ray

    Text #2
    ID                          : 5
    ID in the original source m : 4610 (0x1202)
    Format                      : PGS
    Muxing mode                 : zlib
    Codec ID                    : S_HDMV/PGS
    Codec ID/Info               : Picture based subtitle format used on BDs/HD-DVDs
    Duration                    : 2 h 2 min
    Bit rate                    : 28.2 kb/s
    Count of elements           : 2824
    Stream size                 : 24.7 MiB (0%)
    Title                       : Español-PGS [CinemaniaHDD]
    Language                    : Spanish
    Default                     : No
    Forced                      : No
    Original source medium      : Blu-ray

    Text #3
    ID                          : 6
    ID in the original source m : 4608 (0x1200)
    Format                      : PGS
    Muxing mode                 : zlib
    Codec ID                    : S_HDMV/PGS
    Codec ID/Info               : Picture based subtitle format used on BDs/HD-DVDs
    Duration                    : 2 h 12 min
    Bit rate                    : 48.7 kb/s
    Count of elements           : 4366
    Stream size                 : 46.0 MiB (0%)
    Title                       : Ingles [CinemaniaHDD]
    Language                    : English
    Default                     : No
    Forced                      : No
    Original source medium      : Blu-ray

    Text #4
    ID                          : 7
    Format                      : UTF-8
    Codec ID                    : S_TEXT/UTF8
    Codec ID/Info               : UTF-8 Plain Text
    Duration                    : 1 h 58 min
    Bit rate                    : 2 b/s
    Count of elements           : 76
    Stream size                 : 1.80 KiB (0%)
    Title                       : Forzados-SRT [CinemaniaHDD]
    Language                    : Spanish
    Default                     : Yes
    Forced                      : Yes

    Text #5
    ID                          : 8
    Format                      : UTF-8
    Codec ID                    : S_TEXT/UTF8
    Codec ID/Info               : UTF-8 Plain Text
    Duration                    : 2 h 2 min
    Bit rate                    : 41 b/s
    Count of elements           : 1412
    Stream size                 : 37.1 KiB (0%)
    Title                       : Español-SRT [CinemaniaHDD]
    Language                    : Spanish
    Default                     : No
    Forced                      : No

    Menu
    00:00:00.000                : Chapter 01
    00:03:36.007                : Chapter 02
    00:09:58.431                : Chapter 03
    00:14:56.186                : Chapter 04
    00:18:42.496                : Chapter 05
    00:24:19.499                : Chapter 06
    00:30:29.452                : Chapter 07
    00:33:50.945                : Chapter 08
    00:37:40.716                : Chapter 09
    00:42:28.754                : Chapter 10
    00:46:21.570                : Chapter 11
    00:50:16.013                : Chapter 12
    00:54:24.427                : Chapter 13
    00:59:12.882                : Chapter 14
    01:04:17.311                : Chapter 15
    01:09:51.645                : Chapter 16
    01:14:58.494                : Chapter 17
    01:20:16.061                : Chapter 18
    01:28:40.023                : Chapter 19
    01:32:38.844                : Chapter 20
    01:37:53.325                : Chapter 21
    01:41:37.508                : Chapter 22
    01:46:41.144                : Chapter 23
    01:50:07.183                : Chapter 24
    01:53:17.332                : Chapter 25
    02:00:55.623                : Chapter 26
    02:03:31.362                : Chapter 27

  • Peso: 9.53 GiB

Sinopsis

Descargar Resistencia (2023) PLACEBO Full HD 1080p Latino. En medio de una guerra futura entre la raza humana y las fuerzas de la inteligencia artificial, Joshua, un duro exagente de las fuerzas especiales que llora la desaparición de su esposa es reclutado para cazar y matar al Creador, el escurridizo arquitecto de la IA avanzada que ha desarrollado una misteriosa arma con el poder de acabar con la guerra… y con la propia humanidad.

Ficha técnica

Video trailer de la película

Enlaces de descarga

Rip de Bluray

Descargar Resistencia (2023) PLACEBO Full HD 1080p Latino




Aportes de DPeliculasHDmega la pass es:dpeliculashdmega.org Aportes de CinemaniaHD la pass es:cinemaniahdd.com Aportes recientes:cinemaniahdd.net

Películas relacionadas

  • El bebé de Rosemary (1968) 1080p Latino-CMHDD

    El bebé de Rosemary (1968) 1080p Latino-CMHDD

    1968
    El bebé de Rosemary (1968) 1080p Latino-CMHDD

    2h 18m 1968

    Descargar El bebé de Rosemary (1968) 1080p Latino-CMHDD. Una joven pareja, Rosemary y Guy, se muda a...

    Director: Roman Polanski

    Género: Drama

    Actores: William Castle

  • El Contador (2016) Full HD 1080p Latino-CMHDD

    El Contador (2016) Full HD 1080p Latino-CMHDD

    2016
    El Contador (2016) Full HD 1080p Latino-CMHDD

    2h 8m 2016

    Descargar El Contador (2016) Full HD 1080p Latino-CMHDD. Christian Wolff es un contable y genio matemático,...

    Director: Lori Grabowski

    Género: Crimen

    Actores: Tait Fletcher

  • El Contador (2016) REMUX 1080p Latino-CMHDD

    El Contador (2016) REMUX 1080p Latino-CMHDD

    2016
    El Contador (2016) REMUX 1080p Latino-CMHDD

    2h 8m 2016

    Descargar El Contador (2016) REMUX 1080p Latino-CMHDD. Christian Wolff es un contable y genio matemático,...

    Director: Lori Grabowski

    Género: Crimen

    Actores: Tait Fletcher

descargar Resistencia (2023) PLACEBO Full HD 1080p Latino Full 1080p 1080p gratis, Resistencia (2023) PLACEBO Full HD 1080p Latino Full 1080p mega 1 link, Resistencia (2023) PLACEBO Full HD 1080p Latino Full 1080p pelicula completa, descargar Resistencia (2023) PLACEBO Full HD 1080p Latino Full 1080p gratis en mega.

Resistencia (2023) PLACEBO Full HD 1080p Latino pelicula full hd, Resistencia (2023) PLACEBO Full HD 1080p Latino mega latino, Resistencia (2023) PLACEBO Full HD 1080p Latino 4k latino, Resistencia (2023) PLACEBO Full HD 1080p Latino pelicula completa, Resistencia (2023) PLACEBO Full HD 1080p Latino descargar gratis, descargar Resistencia (2023) PLACEBO Full HD 1080p Latino pelicula latino, Resistencia (2023) PLACEBO Full HD 1080p Latino 1 link mega, Resistencia (2023) PLACEBO Full HD 1080p Latino 1 link google drive, Resistencia (2023) PLACEBO Full HD 1080p Latino hd 1080p latino.
Comentarios 0