Resident Evil 6 Capítulo Final (2016) HD 1080p Latino

589 vistas
1 estrella2 estrellas3 estrellas4 estrellas5 estrellas (1 votos, promedio: 5,00 de 5)
Cargando...

Información de Resident Evil 6 Capítulo Final (2016) HD 1080p Latino

Datos de la película

  • Calidad: 1080p
  • Audio: Español Latino AC3 5.1 BLURAY - Ingles AC3 5.1 BLURAY
  • Subtitulos: Español Latino SRT
  • Resolución: 1920x800
  • Formato: MKV
  • Codec: H.264
  • Encoder: Dracarys
  • Mediainfo: Clic para Mostrar Datos Ver
  • Format                      : Matroska
    Format version              : Version 4
    File size                   : 2.95 GiB
    Duration                    : 1 h 46 min
    Overall bit rate            : 3 968 kb/s
    Movie name                  : CinemaniaHDD.net
    Encoded date                : UTC 2020-04-19 01:12:40
    Writing application         : mkvmerge v38.0.0 ('The Silent Type') 64-bit
    Writing library             : libebml v1.3.9 + libmatroska v1.5.2

    Video
    ID                          : 1
    Format                      : AVC
    Format/Info                 : Advanced Video Codec
    Format profile              : High@L4.1
    Format settings             : CABAC / 4 Ref Frames
    Format settings, CABAC      : Yes
    Format settings, ReFrames   : 4 frames
    Codec ID                    : V_MPEG4/ISO/AVC
    Duration                    : 1 h 46 min
    Bit rate                    : 3 000 kb/s
    Width                       : 1 920 pixels
    Height                      : 800 pixels
    Display aspect ratio        : 2.40:1
    Frame rate mode             : Constant
    Frame rate                  : 23.976 (24000/1001) FPS
    Color space                 : YUV
    Chroma subsampling          : 4:2:0
    Bit depth                   : 8 bits
    Scan type                   : Progressive
    Bits/(Pixel*Frame)          : 0.081
    Stream size                 : 2.14 GiB (73%)
    Writing library             : x264 core 157 r2935 545de2f
    Encoding settings           : cabac=1 / ref=3 / deblock=1:-1:-1 / analyse=0x3:0x113 / me=hex / subme=7 / psy=1 / psy_rd=1.00:0.15 / mixed_ref=1 / me_range=16 / chroma_me=1 / trellis=1 / 8x8dct=1 / cqm=0 / deadzone=21,11 / fast_pskip=1 / chroma_qp_offset=-3 / threads=25 / lookahead_threads=4 / sliced_threads=0 / nr=0 / decimate=1 / interlaced=0 / bluray_compat=0 / constrained_intra=0 / bframes=3 / b_pyramid=2 / b_adapt=1 / b_bias=0 / direct=1 / weightb=1 / open_gop=0 / weightp=2 / keyint=240 / keyint_min=24 / scenecut=40 / intra_refresh=0 / rc_lookahead=40 / rc=abr / mbtree=1 / bitrate=3000 / ratetol=1.0 / qcomp=0.60 / qpmin=0 / qpmax=69 / qpstep=4 / vbv_maxrate=62500 / vbv_bufsize=78125 / nal_hrd=none / filler=0 / ip_ratio=1.40 / aq=1:1.00
    Default                     : Yes
    Forced                      : No
    Color range                 : Limited
    Color primaries             : BT.709
    Transfer characteristics    : BT.709
    Matrix coefficients         : BT.709

    Audio #1
    ID                          : 2
    Format                      : AC-3
    Format/Info                 : Audio Coding 3
    Commercial name             : Dolby Digital
    Codec ID                    : A_AC3
    Duration                    : 1 h 46 min
    Bit rate mode               : Constant
    Bit rate                    : 448 kb/s
    Channel(s)                  : 6 channels
    Channel layout              : L R C LFE Ls Rs
    Sampling rate               : 48.0 kHz
    Frame rate                  : 31.250 FPS (1536 SPF)
    Bit depth                   : 16 bits
    Compression mode            : Lossy
    Stream size                 : 341 MiB (11%)
    Language                    : Spanish
    Service kind                : Complete Main
    Default                     : Yes
    Forced                      : No

    Audio #2
    ID                          : 3
    Format                      : AC-3
    Format/Info                 : Audio Coding 3
    Commercial name             : Dolby Digital
    Codec ID                    : A_AC3
    Duration                    : 1 h 46 min
    Bit rate mode               : Constant
    Bit rate                    : 640 kb/s
    Channel(s)                  : 6 channels
    Channel layout              : L R C LFE Ls Rs
    Sampling rate               : 48.0 kHz
    Frame rate                  : 31.250 FPS (1536 SPF)
    Bit depth                   : 16 bits
    Compression mode            : Lossy
    Delay relative to video     : -5 ms
    Stream size                 : 488 MiB (16%)
    Language                    : English
    Service kind                : Complete Main
    Default                     : No
    Forced                      : No

    Text
    ID                          : 4
    Format                      : UTF-8
    Codec ID                    : S_TEXT/UTF8
    Codec ID/Info               : UTF-8 Plain Text
    Duration                    : 1 h 45 min
    Bit rate                    : 31 b/s
    Count of elements           : 750
    Stream size                 : 24.1 KiB (0%)
    Language                    : Spanish
    Default                     : Yes
    Forced                      : No

  • Peso: 2.95 GiB

Sinopsis

La humanidad está agonizando tras la traición sufrida por Alice a manos de Wesker. Alice deberá regresar a donde la comenzó la pesadilla -Raccoon City-, ya que allí la Corporación Umbrella está reuniendo fuerzas antes de un último ataque a los últimos supervivientes del apocalipsis. En una carrera contra el tiempo, Alice tendrá que unir fuerzas con viejos amigos y con un inesperado aliado en una batalla contra hordas de zombis y nuevos monstruos mutantes. Será la aventura más difícil de Alice para salvar a la humanidad, que está al borde de la extinción.

Ficha técnica

Video trailer de la película

Enlaces de descarga

Rip de Bluray

Descargar Resident Evil 6 Capítulo Final (2016) HD 1080p Latino




Aportes de DPeliculasHDmega la pass es:dpeliculashdmega.org Aportes de CinemaniaHD la pass es:cinemaniahdd.com

Películas relacionadas

  • La chica de rosa (1986) 1080p Latino

    La chica de rosa (1986) 1080p Latino

    1986
    La chica de rosa (1986) 1080p Latino

    0.0 1h 36m 1986

    Descargar La chica de rosa (1986) 1080p Latino. Andie Walsh (Molly Ringwald), una buena estudiante de...

    Director: Pamela Alch

    Género: Comedia

    Actores: Molly Ringwald

  • Escucha tu destino (2007) 1080p Latino

    Escucha tu destino (2007) 1080p Latino

    2007
    Escucha tu destino (2007) 1080p Latino

    0.0 1h 53m 2007

    Descargar Escucha tu destino (2007) 1080p Latino. Un joven guitarrista irlandés (Jonathan Rhys Meyers)...

    Director: Kirsten Sheridan

    Género: Drama

    Actores: Zach Page

  • The Last Exorcism (2010) WEB-DL 1080p Latino

    The Last Exorcism (2010) WEB-DL 1080p Latino

    2010
    The Last Exorcism (2010) WEB-DL 1080p Latino

    5.0 1h 27m 2010

    Tras una carrera ayudando a los devotos a través de plegarias, el reverendo evangelista Cotton Marcus...

    Director: Daniel Stamm

    Género: Suspenso

    Actores: Tony Bentley

Resident Evil 6 Capítulo Final (2016) HD 1080p Latino pelicula full hd, Resident Evil 6 Capítulo Final (2016) HD 1080p Latino mega latino, Resident Evil 6 Capítulo Final (2016) HD 1080p Latino 4k latino, Resident Evil 6 Capítulo Final (2016) HD 1080p Latino pelicula completa, Resident Evil 6 Capítulo Final (2016) HD 1080p Latino descargar gratis, descargar Resident Evil 6 Capítulo Final (2016) HD 1080p Latino pelicula latino, Resident Evil 6 Capítulo Final (2016) HD 1080p Latino 1 link mega, Resident Evil 6 Capítulo Final (2016) HD 1080p Latino 1 link google drive, Resident Evil 6 Capítulo Final (2016) HD 1080p Latino hd 1080p latino.
Comentarios 0