×

¿Problemas para descargar con Mozilla, EDGE? Deshabilita la opción "Abrir vinculos en una pestaña nueva" tal como lo muestra ésta imagen.

Resident Evil 5 Venganza (2012) REMUX 1080p Latino

678 vistas

Información de Resident Evil 5 Venganza (2012) REMUX 1080p Latino

Datos de la película

  • Calidad: Full 1080p
  • Audio: Español Latino AC3 5.1 BLURAY - Ingles DTS 5.1 BLURAY
  • Subtitulos: Español Latino SRT
  • Resolución: 1920x1080p
  • Formato: MKV
  • Codec: H.264
  • Encoder: Dracarys
  • Mediainfo: Clic para Mostrar Datos Ver
  • Format                      : Matroska
    Format version              : Version 4
    File size                   : 19.1 GiB
    Duration                    : 1 h 35 min
    Overall bit rate mode       : Variable
    Overall bit rate            : 28.6 Mb/s
    Encoded date                : UTC 2020-04-13 06:04:26
    Writing application         : mkvmerge v38.0.0 ('The Silent Type') 64-bit
    Writing library             : libebml v1.3.9 + libmatroska v1.5.2

    Video
    ID                          : 1
    Format                      : AVC
    Format/Info                 : Advanced Video Codec
    Format profile              : High@L4.1
    Format settings             : CABAC / 2 Ref Frames
    Format settings, CABAC      : Yes
    Format settings, ReFrames   : 2 frames
    Format settings, GOP        : M=1, N=10
    Codec ID                    : V_MPEG4/ISO/AVC
    Duration                    : 1 h 35 min
    Bit rate mode               : Variable
    Bit rate                    : 24.0 Mb/s
    Width                       : 1 920 pixels
    Height                      : 1 080 pixels
    Display aspect ratio        : 16:9
    Frame rate mode             : Constant
    Frame rate                  : 23.976 (24000/1001) FPS
    Color space                 : YUV
    Chroma subsampling          : 4:2:0
    Bit depth                   : 8 bits
    Scan type                   : Progressive
    Bits/(Pixel*Frame)          : 0.482
    Stream size                 : 16.0 GiB (84%)
    Language                    : English
    Default                     : Yes
    Forced                      : No

    Audio #1
    ID                          : 2
    Format                      : AC-3
    Format/Info                 : Audio Coding 3
    Commercial name             : Dolby Digital
    Codec ID                    : A_AC3
    Duration                    : 1 h 35 min
    Bit rate mode               : Constant
    Bit rate                    : 640 kb/s
    Channel(s)                  : 6 channels
    Channel layout              : L R C LFE Ls Rs
    Sampling rate               : 48.0 kHz
    Frame rate                  : 31.250 FPS (1536 SPF)
    Bit depth                   : 16 bits
    Compression mode            : Lossy
    Stream size                 : 438 MiB (2%)
    Language                    : Spanish
    Service kind                : Complete Main
    Default                     : Yes
    Forced                      : Yes

    Audio #2
    ID                          : 3
    Format                      : AC-3
    Format/Info                 : Audio Coding 3
    Commercial name             : Dolby Digital
    Codec ID                    : A_AC3
    Duration                    : 1 h 35 min
    Bit rate mode               : Constant
    Bit rate                    : 640 kb/s
    Channel(s)                  : 6 channels
    Channel layout              : L R C LFE Ls Rs
    Sampling rate               : 48.0 kHz
    Frame rate                  : 31.250 FPS (1536 SPF)
    Bit depth                   : 16 bits
    Compression mode            : Lossy
    Delay relative to video     : 13 ms
    Stream size                 : 438 MiB (2%)
    Language                    : English
    Service kind                : Complete Main
    Default                     : No
    Forced                      : No

    Audio #3
    ID                          : 4
    Format                      : DTS XLL
    Format/Info                 : Digital Theater Systems
    Commercial name             : DTS-HD Master Audio
    Codec ID                    : A_DTS
    Duration                    : 1 h 35 min
    Bit rate mode               : Variable
    Bit rate                    : 3 360 kb/s
    Channel(s)                  : 6 channels
    Channel layout              : C L R Ls Rs LFE
    Sampling rate               : 48.0 kHz
    Frame rate                  : 93.750 FPS (512 SPF)
    Bit depth                   : 24 bits
    Compression mode            : Lossless
    Stream size                 : 2.24 GiB (12%)
    Language                    : English
    Default                     : No
    Forced                      : No

    Text
    ID                          : 5
    Format                      : UTF-8
    Codec ID                    : S_TEXT/UTF8
    Codec ID/Info               : UTF-8 Plain Text
    Duration                    : 1 h 23 min
    Bit rate                    : 26 b/s
    Count of elements           : 624
    Stream size                 : 16.2 KiB (0%)
    Language                    : Spanish
    Default                     : No
    Forced                      : No

  • Peso: 19.1 GiB

Sinopsis

El virus de la corporación Umbrella sigue haciendo estragos en La Tierra convirtiendo a la población en legiones de muertos sedientos de sangre. La última esperanza de la humanidad, Alice, despierta en el centro de operaciones de la compañía donde comienza a conocer más detalles de su pasado. Alice seguirá persiguiendo a los responsables del virus llevándola por Tokio, Nueva York, Washington y Moscú donde le será revelado algo que la hará plantearse todo lo que la ha sucedido hasta ahora. Con la ayuda de sus nuevos aliados, Alice deberá sobrevivir el tiempo suficiente para escapar de un mundo hostil… La cuenta atrás ha comenzado.

Ficha técnica

Video trailer de la película

Enlaces de descarga

Rip de Bluray

Descargar Resident Evil 5 Venganza (2012) REMUX 1080p Latino




Aportes de DPeliculasHDmega la pass es:dpeliculashdmega.org Aportes de CinemaniaHD la pass es:cinemaniahdd.com
Guardado en : Acción , Ciencia ficción , Remux , Terror

Películas relacionadas

descargar Resident Evil 5 Venganza (2012) REMUX 1080p Latino Full 1080p 1080p gratis, Resident Evil 5 Venganza (2012) REMUX 1080p Latino Full 1080p mega 1 link, Resident Evil 5 Venganza (2012) REMUX 1080p Latino Full 1080p pelicula completa, descargar Resident Evil 5 Venganza (2012) REMUX 1080p Latino Full 1080p gratis en mega.

Resident Evil 5 Venganza (2012) REMUX 1080p Latino pelicula full hd, Resident Evil 5 Venganza (2012) REMUX 1080p Latino mega latino, Resident Evil 5 Venganza (2012) REMUX 1080p Latino 4k latino, Resident Evil 5 Venganza (2012) REMUX 1080p Latino pelicula completa, Resident Evil 5 Venganza (2012) REMUX 1080p Latino descargar gratis, descargar Resident Evil 5 Venganza (2012) REMUX 1080p Latino pelicula latino, Resident Evil 5 Venganza (2012) REMUX 1080p Latino 1 link mega, Resident Evil 5 Venganza (2012) REMUX 1080p Latino 1 link google drive, Resident Evil 5 Venganza (2012) REMUX 1080p Latino hd 1080p latino.
Comentarios 0