Resident Evil 5 Venganza (2012) HD 1080p Latino

400 vistas
1 estrella2 estrellas3 estrellas4 estrellas5 estrellas (Ninguna valoración todavía)
Cargando...

Información de Resident Evil 5 Venganza (2012) HD 1080p Latino

Datos de la película

  • Calidad: 1080p
  • Audio: Español Latino AC3 5.1 BLURAY - Ingles AC3 5.1 BLURAY
  • Subtitulos: Español Latino SRT
  • Resolución: 1920x800
  • Formato: MKV
  • Codec: H.264
  • Encoder: Dracarys
  • Mediainfo: Clic para Mostrar Datos Ver
  • Format                      : Matroska
    Format version              : Version 4
    File size                   : 4.25 GiB
    Duration                    : 1 h 35 min
    Overall bit rate mode       : Variable
    Overall bit rate            : 6 368 kb/s
    Movie name                  : CinemaniaHDD.net
    Encoded date                : UTC 2020-04-18 23:44:57
    Writing application         : mkvmerge v38.0.0 ('The Silent Type') 64-bit
    Writing library             : libebml v1.3.9 + libmatroska v1.5.2

    Video
    ID                          : 1
    Format                      : AVC
    Format/Info                 : Advanced Video Codec
    Format profile              : Main@L4
    Format settings             : CABAC / 2 Ref Frames
    Format settings, CABAC      : Yes
    Format settings, ReFrames   : 2 frames
    Format settings, GOP        : M=1, N=24
    Codec ID                    : V_MPEG4/ISO/AVC
    Duration                    : 1 h 35 min
    Bit rate mode               : Variable
    Bit rate                    : 5 086 kb/s
    Maximum bit rate            : 7 845 kb/s
    Width                       : 1 920 pixels
    Height                      : 800 pixels
    Display aspect ratio        : 2.40:1
    Frame rate mode             : Constant
    Frame rate                  : 23.976 (24000/1001) FPS
    Color space                 : YUV
    Chroma subsampling          : 4:2:0
    Bit depth                   : 8 bits
    Scan type                   : Progressive
    Bits/(Pixel*Frame)          : 0.138
    Stream size                 : 3.40 GiB (80%)
    Default                     : Yes
    Forced                      : No
    Color primaries             : BT.709
    Transfer characteristics    : BT.709
    Matrix coefficients         : BT.709

    Audio #1
    ID                          : 2
    Format                      : AC-3
    Format/Info                 : Audio Coding 3
    Commercial name             : Dolby Digital
    Codec ID                    : A_AC3
    Duration                    : 1 h 35 min
    Bit rate mode               : Constant
    Bit rate                    : 640 kb/s
    Channel(s)                  : 6 channels
    Channel layout              : L R C LFE Ls Rs
    Sampling rate               : 48.0 kHz
    Frame rate                  : 31.250 FPS (1536 SPF)
    Bit depth                   : 16 bits
    Compression mode            : Lossy
    Stream size                 : 438 MiB (10%)
    Language                    : Spanish
    Service kind                : Complete Main
    Default                     : Yes
    Forced                      : No

    Audio #2
    ID                          : 3
    Format                      : AC-3
    Format/Info                 : Audio Coding 3
    Commercial name             : Dolby Digital
    Codec ID                    : A_AC3
    Duration                    : 1 h 35 min
    Bit rate mode               : Constant
    Bit rate                    : 640 kb/s
    Channel(s)                  : 6 channels
    Channel layout              : L R C LFE Ls Rs
    Sampling rate               : 48.0 kHz
    Frame rate                  : 31.250 FPS (1536 SPF)
    Bit depth                   : 16 bits
    Compression mode            : Lossy
    Stream size                 : 438 MiB (10%)
    Language                    : English
    Service kind                : Complete Main
    Default                     : No
    Forced                      : No

    Text
    ID                          : 4
    Format                      : UTF-8
    Codec ID                    : S_TEXT/UTF8
    Codec ID/Info               : UTF-8 Plain Text
    Duration                    : 1 h 23 min
    Bit rate                    : 26 b/s
    Count of elements           : 624
    Stream size                 : 16.2 KiB (0%)
    Language                    : Spanish
    Default                     : No
    Forced                      : No

    Menu
    00:00:00.000                : en:Chapter 1
    00:07:43.087                : en:Chapter 2
    00:14:32.538                : en:Chapter 3
    00:21:38.839                : en:Chapter 4
    00:25:39.329                : en:Chapter 5
    00:29:31.186                : en:Chapter 6
    00:34:16.846                : en:Chapter 7
    00:39:14.768                : en:Chapter 8
    00:45:29.434                : en:Chapter 9
    00:50:27.440                : en:Chapter 10
    00:54:42.070                : en:Chapter 11
    01:00:14.861                : en:Chapter 12
    01:05:38.475                : en:Chapter 13
    01:11:22.945                : en:Chapter 14
    01:16:15.612                : en:Chapter 15
    01:21:29.384                : en:Chapter 16

  • Peso: 4.25 GiB

Sinopsis

El virus de la corporación Umbrella sigue haciendo estragos en La Tierra convirtiendo a la población en legiones de muertos sedientos de sangre. La última esperanza de la humanidad, Alice, despierta en el centro de operaciones de la compañía donde comienza a conocer más detalles de su pasado. Alice seguirá persiguiendo a los responsables del virus llevándola por Tokio, Nueva York, Washington y Moscú donde le será revelado algo que la hará plantearse todo lo que la ha sucedido hasta ahora. Con la ayuda de sus nuevos aliados, Alice deberá sobrevivir el tiempo suficiente para escapar de un mundo hostil… La cuenta atrás ha comenzado.

Ficha técnica

Video trailer de la película

Enlaces de descarga

Rip de Bluray

Descargar Resident Evil 5 Venganza (2012) HD 1080p Latino




Aportes de DPeliculasHDmega la pass es:dpeliculashdmega.org Aportes de CinemaniaHD la pass es:cinemaniahdd.com

Películas relacionadas

  • La chica de rosa (1986) 1080p Latino

    La chica de rosa (1986) 1080p Latino

    1986
    La chica de rosa (1986) 1080p Latino

    0.0 1h 36m 1986

    Descargar La chica de rosa (1986) 1080p Latino. Andie Walsh (Molly Ringwald), una buena estudiante de...

    Director: Pamela Alch

    Género: Comedia

    Actores: Molly Ringwald

  • Escucha tu destino (2007) 1080p Latino

    Escucha tu destino (2007) 1080p Latino

    2007
    Escucha tu destino (2007) 1080p Latino

    0.0 1h 53m 2007

    Descargar Escucha tu destino (2007) 1080p Latino. Un joven guitarrista irlandés (Jonathan Rhys Meyers)...

    Director: Kirsten Sheridan

    Género: Drama

    Actores: Zach Page

  • The Last Exorcism (2010) WEB-DL 1080p Latino

    The Last Exorcism (2010) WEB-DL 1080p Latino

    2010
    The Last Exorcism (2010) WEB-DL 1080p Latino

    5.0 1h 27m 2010

    Tras una carrera ayudando a los devotos a través de plegarias, el reverendo evangelista Cotton Marcus...

    Director: Daniel Stamm

    Género: Suspenso

    Actores: Tony Bentley

Resident Evil 5 Venganza (2012) HD 1080p Latino pelicula full hd, Resident Evil 5 Venganza (2012) HD 1080p Latino mega latino, Resident Evil 5 Venganza (2012) HD 1080p Latino 4k latino, Resident Evil 5 Venganza (2012) HD 1080p Latino pelicula completa, Resident Evil 5 Venganza (2012) HD 1080p Latino descargar gratis, descargar Resident Evil 5 Venganza (2012) HD 1080p Latino pelicula latino, Resident Evil 5 Venganza (2012) HD 1080p Latino 1 link mega, Resident Evil 5 Venganza (2012) HD 1080p Latino 1 link google drive, Resident Evil 5 Venganza (2012) HD 1080p Latino hd 1080p latino.
Comentarios 0