Resident Evil 4 La Resurrección (2010) HD 1080p Latino

426 vistas
1 estrella2 estrellas3 estrellas4 estrellas5 estrellas (1 votos, promedio: 5,00 de 5)
Cargando...

Información de Resident Evil 4 La Resurrección (2010) HD 1080p Latino

Datos de la película

  • Calidad: 1080p
  • Audio: Español Latino AC3 5.1 BLURAY - Ingles AC3 5.1 BLURAY
  • Subtitulos: Español Latino SRT
  • Resolución: 1920x1040
  • Formato: MKV
  • Codec: H.264
  • Encoder: Dracarys
  • Mediainfo: Clic para Mostrar Datos Ver
  • Format                      : Matroska
    Format version              : Version 4
    File size                   : 4.47 GiB
    Duration                    : 1 h 36 min
    Overall bit rate mode       : Variable
    Overall bit rate            : 6 611 kb/s
    Movie name                  : CinemaniaHDD.net
    Encoded date                : UTC 2020-04-18 23:40:10
    Writing application         : mkvmerge v38.0.0 ('The Silent Type') 64-bit
    Writing library             : libebml v1.3.9 + libmatroska v1.5.2

    Video
    ID                          : 1
    Format                      : AVC
    Format/Info                 : Advanced Video Codec
    Format profile              : Main@L4
    Format settings             : CABAC / 2 Ref Frames
    Format settings, CABAC      : Yes
    Format settings, ReFrames   : 2 frames
    Format settings, GOP        : M=1, N=24
    Codec ID                    : V_MPEG4/ISO/AVC
    Duration                    : 1 h 36 min
    Bit rate mode               : Variable
    Bit rate                    : 5 521 kb/s
    Maximum bit rate            : 8 547 kb/s
    Width                       : 1 920 pixels
    Height                      : 1 040 pixels
    Display aspect ratio        : 1.85:1
    Frame rate mode             : Constant
    Frame rate                  : 23.976 (24000/1001) FPS
    Color space                 : YUV
    Chroma subsampling          : 4:2:0
    Bit depth                   : 8 bits
    Scan type                   : Progressive
    Bits/(Pixel*Frame)          : 0.115
    Stream size                 : 3.74 GiB (84%)
    Default                     : Yes
    Forced                      : No
    Color primaries             : BT.709
    Transfer characteristics    : BT.709
    Matrix coefficients         : BT.709

    Audio #1
    ID                          : 2
    Format                      : AC-3
    Format/Info                 : Audio Coding 3
    Commercial name             : Dolby Digital
    Codec ID                    : A_AC3
    Duration                    : 1 h 36 min
    Bit rate mode               : Constant
    Bit rate                    : 448 kb/s
    Channel(s)                  : 6 channels
    Channel layout              : L R C LFE Ls Rs
    Sampling rate               : 48.0 kHz
    Frame rate                  : 31.250 FPS (1536 SPF)
    Bit depth                   : 16 bits
    Compression mode            : Lossy
    Stream size                 : 310 MiB (7%)
    Language                    : Spanish
    Service kind                : Complete Main
    Default                     : Yes
    Forced                      : No

    Audio #2
    ID                          : 3
    Format                      : AC-3
    Format/Info                 : Audio Coding 3
    Commercial name             : Dolby Digital
    Codec ID                    : A_AC3
    Duration                    : 1 h 36 min
    Bit rate mode               : Constant
    Bit rate                    : 640 kb/s
    Channel(s)                  : 6 channels
    Channel layout              : L R C LFE Ls Rs
    Sampling rate               : 48.0 kHz
    Frame rate                  : 31.250 FPS (1536 SPF)
    Bit depth                   : 16 bits
    Compression mode            : Lossy
    Stream size                 : 443 MiB (10%)
    Language                    : English
    Service kind                : Complete Main
    Default                     : No
    Forced                      : No

    Text
    ID                          : 4
    Format                      : UTF-8
    Codec ID                    : S_TEXT/UTF8
    Codec ID/Info               : UTF-8 Plain Text
    Duration                    : 1 h 35 min
    Bit rate                    : 24 b/s
    Count of elements           : 649
    Stream size                 : 17.3 KiB (0%)
    Language                    : Spanish
    Default                     : No
    Forced                      : No
     

  • Peso: 4.47 GiB

Sinopsis

En un mundo asolado por un virus infeccioso que convierte a sus víctimas en muertos vivientes, Alice continúa buscando supervivientes para ponerlos a salvo. Su batalla a muerte con la Corporación Umbrella llega a alturas insospechadas, pero Alice, inesperadamente, recibe ayuda de una vieja amiga. Nuevas pistas, con la promesa de un paraíso a salvo de muertos vivientes, los conduce hasta Los Ángeles, pero cuando llegan, la ciudad está infectada con miles de muertos vivientes. Alice y sus compañeros están a punto de caer en una trampa mortal.

Ficha técnica

Video trailer de la película

Enlaces de descarga

Rip de Bluray

Descargar Resident Evil 4 La Resurrección (2010) HD 1080p Latino




Aportes de DPeliculasHDmega la pass es:dpeliculashdmega.org Aportes de CinemaniaHD la pass es:cinemaniahdd.com

Películas relacionadas

  • Spirit: El Indomable (2021) Web-DL 4K UHD HDR Latino

    Spirit: El Indomable (2021) Web-DL 4K UHD HDR Latino

    2021
    Spirit: El Indomable (2021) Web-DL 4K UHD HDR Latino

    0.0 1h 28m 2021

    Descargar Spirit: El Indomable (2021) Web-DL 4K UHD HDR Latino. La vida de Lucky Prescott cambia para...

    Director: Ennio Torresan Jr.

    Género: 4K HDR

    Actores: Walton Goggins

  • Spirit: El Indomable (2021) AMZN WebDL 1080p Latino

    Spirit: El Indomable (2021) AMZN WebDL 1080p Latino

    2021
    Spirit: El Indomable (2021) AMZN WebDL 1080p Latino

    0.0 1h 28m 2021

    Descargar Spirit: El Indomable (2021) AMZN WebDL 1080p Latino. La vida de Lucky Prescott cambia para...

    Director: Ennio Torresan Jr.

    Género: Animación

    Actores: Walton Goggins

  • Spirit: El Indomable (2021) WebDL 1080p Latino

    Spirit: El Indomable (2021) WebDL 1080p Latino

    2021
    Spirit: El Indomable (2021) WebDL 1080p Latino

    0.0 1h 28m 2021

    Descargar Spirit: El Indomable (2021) WebDL 1080p Latino. La vida de Lucky Prescott cambia para siempre...

    Director: Ennio Torresan Jr.

    Género: Animación

    Actores: Walton Goggins

  • La chica de rosa (1986) 1080p Latino

    La chica de rosa (1986) 1080p Latino

    1986
    La chica de rosa (1986) 1080p Latino

    0.0 1h 36m 1986

    Descargar La chica de rosa (1986) 1080p Latino. Andie Walsh (Molly Ringwald), una buena estudiante de...

    Director: Pamela Alch

    Género: Comedia

    Actores: Molly Ringwald

  • Escucha tu destino (2007) 1080p Latino

    Escucha tu destino (2007) 1080p Latino

    2007
    Escucha tu destino (2007) 1080p Latino

    0.0 1h 53m 2007

    Descargar Escucha tu destino (2007) 1080p Latino. Un joven guitarrista irlandés (Jonathan Rhys Meyers)...

    Director: Kirsten Sheridan

    Género: Drama

    Actores: Zach Page

Resident Evil 4 La Resurrección (2010) HD 1080p Latino pelicula full hd, Resident Evil 4 La Resurrección (2010) HD 1080p Latino mega latino, Resident Evil 4 La Resurrección (2010) HD 1080p Latino 4k latino, Resident Evil 4 La Resurrección (2010) HD 1080p Latino pelicula completa, Resident Evil 4 La Resurrección (2010) HD 1080p Latino descargar gratis, descargar Resident Evil 4 La Resurrección (2010) HD 1080p Latino pelicula latino, Resident Evil 4 La Resurrección (2010) HD 1080p Latino 1 link mega, Resident Evil 4 La Resurrección (2010) HD 1080p Latino 1 link google drive, Resident Evil 4 La Resurrección (2010) HD 1080p Latino hd 1080p latino.
Comentarios 0