×

¿Problemas para descargar con Mozilla, EDGE? Deshabilita la opción "Abrir vinculos en una pestaña nueva" tal como lo muestra ésta imagen.

Resident Evil 3 La Extinction (2007) HD 1080p Latino

797 vistas

Información de Resident Evil 3 La Extinction (2007) HD 1080p Latino

Datos de la película

  • Calidad: 1080p
  • Audio: Español Latino AC3 5.1 BLURAY - Ingles AC3 5.1 BLURAY
  • Subtitulos: Español Latino SRT
  • Resolución: 1920x800
  • Formato: MKV
  • Codec: H.264
  • Encoder: Dracarys
  • Mediainfo: Clic para Mostrar Datos Ver
  • Format                      : Matroska
    Format version              : Version 4
    File size                   : 4.32 GiB
    Duration                    : 1 h 34 min
    Overall bit rate mode       : Variable
    Overall bit rate            : 6 574 kb/s
    Movie name                  : CinemaniaHDD.net
    Encoded date                : UTC 2020-04-18 23:55:21
    Writing application         : mkvmerge v38.0.0 ('The Silent Type') 64-bit
    Writing library             : libebml v1.3.9 + libmatroska v1.5.2

    Video
    ID                          : 1
    Format                      : AVC
    Format/Info                 : Advanced Video Codec
    Format profile              : Main@L4
    Format settings             : CABAC / 2 Ref Frames
    Format settings, CABAC      : Yes
    Format settings, ReFrames   : 2 frames
    Format settings, GOP        : M=1, N=24
    Codec ID                    : V_MPEG4/ISO/AVC
    Duration                    : 1 h 33 min
    Bit rate mode               : Variable
    Bit rate                    : 5 298 kb/s
    Maximum bit rate            : 8 286 kb/s
    Width                       : 1 920 pixels
    Height                      : 800 pixels
    Display aspect ratio        : 2.40:1
    Frame rate mode             : Constant
    Frame rate                  : 23.976 (24000/1001) FPS
    Color space                 : YUV
    Chroma subsampling          : 4:2:0
    Bit depth                   : 8 bits
    Scan type                   : Progressive
    Bits/(Pixel*Frame)          : 0.144
    Stream size                 : 3.48 GiB (80%)
    Default                     : Yes
    Forced                      : No
    Color primaries             : BT.709
    Transfer characteristics    : BT.709
    Matrix coefficients         : BT.709

    Audio #1
    ID                          : 2
    Format                      : AC-3
    Format/Info                 : Audio Coding 3
    Commercial name             : Dolby Digital
    Codec ID                    : A_AC3
    Duration                    : 1 h 34 min
    Bit rate mode               : Constant
    Bit rate                    : 640 kb/s
    Channel(s)                  : 6 channels
    Channel layout              : L R C LFE Ls Rs
    Sampling rate               : 48.0 kHz
    Frame rate                  : 31.250 FPS (1536 SPF)
    Bit depth                   : 16 bits
    Compression mode            : Lossy
    Stream size                 : 431 MiB (10%)
    Language                    : Spanish
    Service kind                : Complete Main
    Default                     : Yes
    Forced                      : No

    Audio #2
    ID                          : 3
    Format                      : AC-3
    Format/Info                 : Audio Coding 3
    Commercial name             : Dolby Digital
    Codec ID                    : A_AC3
    Duration                    : 1 h 34 min
    Bit rate mode               : Constant
    Bit rate                    : 640 kb/s
    Channel(s)                  : 6 channels
    Channel layout              : L R C LFE Ls Rs
    Sampling rate               : 48.0 kHz
    Frame rate                  : 31.250 FPS (1536 SPF)
    Bit depth                   : 16 bits
    Compression mode            : Lossy
    Stream size                 : 431 MiB (10%)
    Language                    : English
    Service kind                : Complete Main
    Default                     : No
    Forced                      : No

    Text
    ID                          : 4
    Format                      : UTF-8
    Codec ID                    : S_TEXT/UTF8
    Codec ID/Info               : UTF-8 Plain Text
    Duration                    : 1 h 30 min
    Bit rate                    : 26 b/s
    Count of elements           : 572
    Stream size                 : 17.5 KiB (0%)
    Language                    : Spanish
    Default                     : No
    Forced                      : No
     

  • Peso: 4.32 GiB

Sinopsis

Tercera entrega de la saga basada en los famosos videojuegos. En esta ocasión, nuestra heroína, Milla Jovovich, junto con los supervivientes de la catástrofe acontecida en la ciudad de Raccoon deben atravesar el desierto de Nevada con la esperanza de llegar a Alaska, antes de que los de la Corporación Umbrella les alcancen.

Ficha técnica

Video trailer de la película

Enlaces de descarga

Rip de Bluray

Descargar Resident Evil 3 La Extinction (2007) HD 1080p Latino




Aportes de DPeliculasHDmega la pass es:dpeliculashdmega.org Aportes de CinemaniaHD la pass es:cinemaniahdd.com

Películas relacionadas

  • El discurso del Rey (2010) 1080p Latino

    El discurso del Rey (2010) 1080p Latino

    2010
    El discurso del Rey (2010) 1080p Latino

    1h 58m 2010

    Descargar El discurso del Rey (2010) 1080p Latino. El duque de York se convirtió en rey de Gran Bretaña...

    Director: Tom Hooper

    Género: Drama

    Actores: Tony Earnshaw

  • Lucy (2014) REMUX 4K HDR Latino – CMHDD

    Lucy (2014) REMUX 4K HDR Latino – CMHDD

    2014
    Lucy (2014) REMUX 4K HDR Latino – CMHDD

    1h 30m 2014

    Lucy, una joven obligada a ejercer de mula de una nueva y potente droga, adquiere de repente enormes...

    Director: Luc Besson

    Género: Acción

    Actores: Wolfgang Pissors

descargar Resident Evil 3 La Extinction (2007) HD 1080p Latino 1080p 1080p gratis, Resident Evil 3 La Extinction (2007) HD 1080p Latino 1080p mega 1 link, Resident Evil 3 La Extinction (2007) HD 1080p Latino 1080p pelicula completa, descargar Resident Evil 3 La Extinction (2007) HD 1080p Latino 1080p gratis en mega.

Resident Evil 3 La Extinction (2007) HD 1080p Latino pelicula full hd, Resident Evil 3 La Extinction (2007) HD 1080p Latino mega latino, Resident Evil 3 La Extinction (2007) HD 1080p Latino 4k latino, Resident Evil 3 La Extinction (2007) HD 1080p Latino pelicula completa, Resident Evil 3 La Extinction (2007) HD 1080p Latino descargar gratis, descargar Resident Evil 3 La Extinction (2007) HD 1080p Latino pelicula latino, Resident Evil 3 La Extinction (2007) HD 1080p Latino 1 link mega, Resident Evil 3 La Extinction (2007) HD 1080p Latino 1 link google drive, Resident Evil 3 La Extinction (2007) HD 1080p Latino hd 1080p latino.
Comentarios 2
  • Andrés - 21 abril, 2020

    Hola, esta película no tiene el audio latino sincronizado, tiene un pequeño desfase, la descargue por medio de Google Drive, todas las otras de caratula negra ya las descargue y están perfectas. Muchas gracias.

    • Dracarys - 21 abril, 2020

      revisando