×

¿Problemas para descargar con Mozilla, EDGE? Deshabilita la opción "Abrir vinculos en una pestaña nueva" tal como lo muestra ésta imagen.

Resident Evil (2002) REMUX 1080p Latino

1.015 vistas

Información de Resident Evil (2002) REMUX 1080p Latino

Datos de la película

  • Calidad: Full 1080p
  • Audio: Español Latino AC3 5.1 BLURAY - Ingles DTS 5.1 BLURAY
  • Subtitulos: Español Latino SRT
  • Resolución: 1920x1080
  • Formato: MKV
  • Codec: H.264
  • Encoder: Dracarys
  • Mediainfo: Clic para Mostrar Datos Ver
  • Format                      : Matroska
    Format version              : Version 4
    File size                   : 22.2 GiB
    Duration                    : 1 h 40 min
    Overall bit rate mode       : Variable
    Overall bit rate            : 31.6 Mb/s
    Movie name                  : CinemaniaHDD.net
    Encoded date                : UTC 2020-04-13 05:48:33
    Writing application         : mkvmerge v38.0.0 ('The Silent Type') 64-bit
    Writing library             : libebml v1.3.9 + libmatroska v1.5.2

    Video
    ID                          : 1
    Format                      : AVC
    Format/Info                 : Advanced Video Codec
    Format profile              : High@L4.1
    Format settings             : CABAC / 2 Ref Frames
    Format settings, CABAC      : Yes
    Format settings, ReFrames   : 2 frames
    Codec ID                    : V_MPEG4/ISO/AVC
    Duration                    : 1 h 40 min
    Bit rate mode               : Variable
    Bit rate                    : 25.8 Mb/s
    Width                       : 1 920 pixels
    Height                      : 1 080 pixels
    Display aspect ratio        : 16:9
    Frame rate mode             : Constant
    Frame rate                  : 23.976 (24000/1001) FPS
    Color space                 : YUV
    Chroma subsampling          : 4:2:0
    Bit depth                   : 8 bits
    Scan type                   : Progressive
    Bits/(Pixel*Frame)          : 0.520
    Stream size                 : 18.1 GiB (82%)
    Default                     : Yes
    Forced                      : No

    Audio #1
    ID                          : 2
    Format                      : AC-3
    Format/Info                 : Audio Coding 3
    Commercial name             : Dolby Digital
    Codec ID                    : A_AC3
    Duration                    : 1 h 40 min
    Bit rate mode               : Constant
    Bit rate                    : 640 kb/s
    Channel(s)                  : 6 channels
    Channel layout              : L R C LFE Ls Rs
    Sampling rate               : 48.0 kHz
    Frame rate                  : 31.250 FPS (1536 SPF)
    Bit depth                   : 16 bits
    Compression mode            : Lossy
    Delay relative to video     : 13 ms
    Stream size                 : 460 MiB (2%)
    Language                    : Spanish
    Service kind                : Complete Main
    Default                     : Yes
    Forced                      : Yes

    Audio #2
    ID                          : 3
    Format                      : AC-3
    Format/Info                 : Audio Coding 3
    Commercial name             : Dolby Digital
    Codec ID                    : A_AC3
    Duration                    : 1 h 40 min
    Bit rate mode               : Constant
    Bit rate                    : 640 kb/s
    Channel(s)                  : 6 channels
    Channel layout              : L R C LFE Ls Rs
    Sampling rate               : 48.0 kHz
    Frame rate                  : 31.250 FPS (1536 SPF)
    Bit depth                   : 16 bits
    Compression mode            : Lossy
    Delay relative to video     : 13 ms
    Stream size                 : 460 MiB (2%)
    Language                    : English
    Service kind                : Complete Main
    Default                     : No
    Forced                      : No

    Audio #3
    ID                          : 4
    Format                      : DTS XLL
    Format/Info                 : Digital Theater Systems
    Commercial name             : DTS-HD Master Audio
    Codec ID                    : A_DTS
    Duration                    : 1 h 40 min
    Bit rate mode               : Variable
    Bit rate                    : 4 462 kb/s
    Channel(s)                  : 6 channels
    Channel layout              : C L R Ls Rs LFE
    Sampling rate               : 48.0 kHz
    Frame rate                  : 93.750 FPS (512 SPF)
    Bit depth                   : 24 bits
    Compression mode            : Lossless
    Stream size                 : 3.13 GiB (14%)
    Language                    : English
    Default                     : No
    Forced                      : No

    Text #1
    ID                          : 5
    Format                      : UTF-8
    Codec ID                    : S_TEXT/UTF8
    Codec ID/Info               : UTF-8 Plain Text
    Duration                    : 2 s 0 ms
    Bit rate                    : 92 b/s
    Count of elements           : 1
    Stream size                 : 23.0 Bytes (0%)
    Language                    : Spanish
    Default                     : Yes
    Forced                      : Yes

    Text #2
    ID                          : 6
    Format                      : UTF-8
    Codec ID                    : S_TEXT/UTF8
    Codec ID/Info               : UTF-8 Plain Text
    Duration                    : 1 h 32 min
    Bit rate                    : 30 b/s
    Count of elements           : 678
    Stream size                 : 20.5 KiB (0%)
    Language                    : Spanish
    Default                     : No
    Forced                      : No
     

  • Peso: 22.2 GiB

Sinopsis

En un centro clandestino de investigación genética -con fines militares- de una poderosa multinacional se produce un brote vírico que contamina todo el edificio. Para contener la fuga el ordenador que controla el centro sella toda la instalación y, en un principio se cree que mueren todos los empleados, pero en realidad se han convertido en feroces zombis…

Ficha técnica

Video trailer de la película

Enlaces de descarga

Rip de Bluray

Descargar Resident Evil (2002) REMUX 1080p Latino




Aportes de DPeliculasHDmega la pass es:dpeliculashdmega.org Aportes de CinemaniaHD la pass es:cinemaniahdd.com
Guardado en : Acción , Ciencia ficción , Remux , Terror

Películas relacionadas

  • El Cuartel Secreto (2022) WEB-DL 4K UHD HDR Latino

    El Cuartel Secreto (2022) WEB-DL 4K UHD HDR Latino

    2022
    El Cuartel Secreto (2022) WEB-DL 4K UHD HDR Latino

    1h 44m 2022

    Descargar El Cuartel Secreto (2022) WEB-DL 4K UHD HDR Latino. Mientras pasan el rato después de la escuela,...

    Director: Henry Joost

    Género: 4K HDR

    Actores: Zeb Slone

  • El Cuartel Secreto (2022) WEB-DL 1080p Latino

    El Cuartel Secreto (2022) WEB-DL 1080p Latino

    2022
    El Cuartel Secreto (2022) WEB-DL 1080p Latino

    1h 44m 2022

    Descargar El Cuartel Secreto (2022) WEB-DL 1080p Latino. Mientras pasan el rato después de la escuela,...

    Director: Henry Joost

    Género: Acción

    Actores: Zeb Slone

  • Men in Black (1997) REMUX 4K HDR Latino – CMHDD

    Men in Black (1997) REMUX 4K HDR Latino – CMHDD

    1997
    Men in Black (1997) REMUX 4K HDR Latino – CMHDD

    1h 34m 1997

    Durante muchos años los extraterrestres han vivido en la Tierra, mezclados con los humanos, sin que...

    Director: Tyrone S. Walker

    Género: Acción

    Actores: Willie C. Carpenter

  • Borrego: Sal Del Camino (2022) REMUX 1080p Latino

    Borrego: Sal Del Camino (2022) REMUX 1080p Latino

    2022
    Borrego: Sal Del Camino (2022) REMUX 1080p Latino

    1h 42m 2022

    Descargar Borrego: Sal Del Camino (2022) REMUX 1080p Latino. Una joven botánica se traslada a un pequeño...

    Director: Jesse Harris

    Género: Crimen

    Actores: Olivia Trujillo

  • Tren Bala (2022) WEB-DL 4K UHD HDR Latino

    Tren Bala (2022) WEB-DL 4K UHD HDR Latino

    2022
    Tren Bala (2022) WEB-DL 4K UHD HDR Latino

    2h 7m 2022

    Descargar Tren Bala (2022) WEB-DL 4K UHD HDR Latino. El desafortunado asesino "Catarina" está decidido...

    Director: Paul Barry

    Género: 4K HDR

    Actores: Zooey Miyoshi

descargar Resident Evil (2002) REMUX 1080p Latino Full 1080p 1080p gratis, Resident Evil (2002) REMUX 1080p Latino Full 1080p mega 1 link, Resident Evil (2002) REMUX 1080p Latino Full 1080p pelicula completa, descargar Resident Evil (2002) REMUX 1080p Latino Full 1080p gratis en mega.

Resident Evil (2002) REMUX 1080p Latino pelicula full hd, Resident Evil (2002) REMUX 1080p Latino mega latino, Resident Evil (2002) REMUX 1080p Latino 4k latino, Resident Evil (2002) REMUX 1080p Latino pelicula completa, Resident Evil (2002) REMUX 1080p Latino descargar gratis, descargar Resident Evil (2002) REMUX 1080p Latino pelicula latino, Resident Evil (2002) REMUX 1080p Latino 1 link mega, Resident Evil (2002) REMUX 1080p Latino 1 link google drive, Resident Evil (2002) REMUX 1080p Latino hd 1080p latino.
Comentarios 2
  • Andrés - 15 abril, 2020

    Gracias por subirlas, ojala las suban en caratula negra, ya que estas versiones REMUX y PLATEADA pesan mucho.

  • Kevin - 15 abril, 2020

    Genial. muchas gracias por compartir 😀