×

¿Problemas para descargar con Mozilla, EDGE? Deshabilita la opción "Abrir vinculos en una pestaña nueva" tal como lo muestra ésta imagen.

Resident Alien (2022) Segunda Temporada WEB-DL 1080p Latino

152 vistas

Información de Resident Alien (2022) Segunda Temporada WEB-DL 1080p Latino

Datos de la película

  • Calidad: 1080p
  • Audio: Español Latino AC3 2.0 WEB-DL - Ingles AC3 5.1 WEB-DL
  • Subtitulos: Español Latino SRT- FORZADOS SRT
  • Resolución: 1920x1080
  • Formato: MKV
  • Codec: H.264
  • Encoder: cinemaniahdd
  • Mediainfo: Clic para Mostrar Datos Ver
  • Resident Alien T02E01 WEB-DL 1080p Latino [CNMNHDD].mkv
    Format                      : Matroska
    Format version              : Version 4
    File size                   : 2.55 GiB
    Duration                    : 46 min 17 s
    Overall bit rate            : 7 896 kb/s
    Movie name                  : Resident Alien S02E01 - Old Friends [1080p] - CinemaniaHDD.Net
    Encoded date                : UTC 2022-09-01 22:47:44
    Writing application         : mkvmerge v56.1.0 ('My Friend') 64-bit
    Writing library             : libebml v1.4.2 + libmatroska v1.6.4

    Video
    ID                          : 1
    Format                      : AVC
    Format/Info                 : Advanced Video Codec
    Format profile              : High@L4
    Format settings             : CABAC / 4 Ref Frames
    Format settings, CABAC      : Yes
    Format settings, Reference  : 4 frames
    Codec ID                    : V_MPEG4/ISO/AVC
    Duration                    : 46 min 16 s
    Bit rate                    : 7 814 kb/s
    Width                       : 1 920 pixels
    Height                      : 1 080 pixels
    Display aspect ratio        : 16:9
    Frame rate mode             : Constant
    Frame rate                  : 23.976 (24000/1001) FPS
    Color space                 : YUV
    Chroma subsampling          : 4:2:0
    Bit depth                   : 8 bits
    Scan type                   : Progressive
    Bits/(Pixel*Frame)          : 0.157
    Stream size                 : 2.45 GiB (96%)
    Title                       : CinemaniaHDD
    Writing library             : x264 core 163 r3060 5db6aa6
    Encoding settings           : cabac=1 / ref=4 / deblock=1:0:0 / analyse=0x3:0x113 / me=umh / subme=7 / psy=1 / psy_rd=0.00:0.00 / mixed_ref=1 / me_range=16 / chroma_me=1 / trellis=1 / 8x8dct=1 / cqm=0 / deadzone=21,11 / fast_pskip=0 / chroma_qp_offset=0 / threads=34 / lookahead_threads=5 / sliced_threads=0 / nr=0 / decimate=1 / interlaced=0 / bluray_compat=0 / constrained_intra=0 / bframes=16 / b_pyramid=2 / b_adapt=1 / b_bias=0 / direct=1 / weightb=1 / open_gop=0 / weightp=2 / keyint=48 / keyint_min=4 / scenecut=0 / intra_refresh=0 / rc_lookahead=40 / rc=2pass / mbtree=1 / bitrate=7814 / ratetol=1.0 / qcomp=0.60 / qpmin=10 / qpmax=51 / qpstep=4 / cplxblur=20.0 / qblur=0.5 / vbv_maxrate=7814 / vbv_bufsize=7814 / nal_hrd=none / filler=0 / ip_ratio=1.41 / aq=1:1.00
    Default                     : Yes
    Forced                      : No
    Color range                 : Limited
    Color primaries             : BT.709
    Transfer characteristics    : BT.709
    Matrix coefficients         : BT.709

    Audio #1
    ID                          : 2
    Format                      : AAC LC
    Format/Info                 : Advanced Audio Codec Low Complexity
    Codec ID                    : A_AAC-2
    Duration                    : 46 min 17 s
    Bit rate                    : 126 kb/s
    Channel(s)                  : 2 channels
    Channel layout              : L R
    Sampling rate               : 48.0 kHz
    Frame rate                  : 46.875 FPS (1024 SPF)
    Compression mode            : Lossy
    Stream size                 : 41.6 MiB (2%)
    Title                       : Español latino [CinemaniaHDD]
    Language                    : Spanish
    Default                     : Yes
    Forced                      : No

    Audio #2
    ID                          : 3
    Format                      : E-AC-3
    Format/Info                 : Enhanced AC-3
    Commercial name             : Dolby Digital Plus
    Codec ID                    : A_EAC3
    Duration                    : 46 min 17 s
    Bit rate mode               : Constant
    Bit rate                    : 192 kb/s
    Channel(s)                  : 6 channels
    Channel layout              : L R C LFE Ls Rs
    Sampling rate               : 48.0 kHz
    Frame rate                  : 31.250 FPS (1536 SPF)
    Compression mode            : Lossy
    Stream size                 : 63.6 MiB (2%)
    Title                       : Inglés [CinemaniaHDD]
    Language                    : English
    Service kind                : Complete Main
    Default                     : No
    Forced                      : No

    Text #1
    ID                          : 4
    Format                      : UTF-8
    Codec ID                    : S_TEXT/UTF8
    Codec ID/Info               : UTF-8 Plain Text
    Duration                    : 33 min 29 s
    Bit rate                    : 0 b/s
    Count of elements           : 4
    Stream size                 : 107 Bytes (0%)
    Title                       : Forzados [CinemaniaHDD]
    Language                    : Spanish
    Default                     : Yes
    Forced                      : Yes

    Text #2
    ID                          : 5
    Format                      : UTF-8
    Codec ID                    : S_TEXT/UTF8
    Codec ID/Info               : UTF-8 Plain Text
    Duration                    : 45 min 45 s
    Bit rate                    : 71 b/s
    Count of elements           : 756
    Stream size                 : 23.8 KiB (0%)
    Title                       : Español latino [CinemaniaHDD]
    Language                    : Spanish
    Default                     : No
    Forced                      : No

    Text #3
    ID                          : 6
    Format                      : UTF-8
    Codec ID                    : S_TEXT/UTF8
    Codec ID/Info               : UTF-8 Plain Text
    Duration                    : 46 min 9 s
    Bit rate                    : 84 b/s
    Count of elements           : 1013
    Stream size                 : 28.5 KiB (0%)
    Title                       : Inglés [CinemaniaHDD]
    Language                    : English
    Default                     : No
    Forced                      : No

     

  • Peso: 2.55 GiB C/U --- 8 CAPITULOS AGREGADOS

Sinopsis

La historia sigue a Harry, un extraterrestre que aterriza en la Tierra y se hace pasar por un médico humano de un pequeño pueblo. Al llegar con una misión secreta para matar a todos los humanos, Harry comienza a vivir una vida simple… Pero las cosas se ponen un poco difíciles cuando se ve obligado a resolver un asesinato local y se da cuenta de que necesita asimilarse a su nuevo mundo. Mientras lo hace, comienza a luchar con el dilema moral de su misión y a plantearse las grandes preguntas de la vida como: “¿Vale la pena salvar a los seres humanos?” y “¿Por qué doblan la pizza antes de comerla?”

Ficha técnica

Video trailer de la película

Enlaces de descarga

Rip de Bluray

Descargar Resident Alien (2022) Segunda Temporada WEB-DL 1080p Latino




Aportes de DPeliculasHDmega la pass es:dpeliculashdmega.org Aportes de CinemaniaHD la pass es:cinemaniahdd.com
Guardado en : Sci-Fi & Fantasy , Series

Películas relacionadas

descargar Resident Alien (2022) Segunda Temporada WEB-DL 1080p Latino 1080p 1080p gratis, Resident Alien (2022) Segunda Temporada WEB-DL 1080p Latino 1080p mega 1 link, Resident Alien (2022) Segunda Temporada WEB-DL 1080p Latino 1080p serie completa, descargar Resident Alien (2022) Segunda Temporada WEB-DL 1080p Latino 1080p gratis en mega.

Resident Alien (2022) Segunda Temporada WEB-DL 1080p Latino pelicula full hd, Resident Alien (2022) Segunda Temporada WEB-DL 1080p Latino mega latino, Resident Alien (2022) Segunda Temporada WEB-DL 1080p Latino 4k latino, Resident Alien (2022) Segunda Temporada WEB-DL 1080p Latino pelicula completa, Resident Alien (2022) Segunda Temporada WEB-DL 1080p Latino descargar gratis, descargar Resident Alien (2022) Segunda Temporada WEB-DL 1080p Latino pelicula latino, Resident Alien (2022) Segunda Temporada WEB-DL 1080p Latino 1 link mega, Resident Alien (2022) Segunda Temporada WEB-DL 1080p Latino 1 link google drive, Resident Alien (2022) Segunda Temporada WEB-DL 1080p Latino hd 1080p latino.
Comentarios 0