Rescate suicida (2016) WEB-DL 1080p Latino

1.538 vistas
1 estrella2 estrellas3 estrellas4 estrellas5 estrellas (2 votos, promedio: 1,00 de 5)
Cargando…

Información de Rescate suicida (2016) WEB-DL 1080p Latino

Datos de la película

  • Calidad: Full 1080p
  • Audio: Español Latino AC3 5.1 iTunes
  • Subtitulos: No
  • Resolución: 1912x804p
  • Formato: MKV
  • Codec: H.264
  • Encoder: Dracarys
  • Mediainfo: Clic para Mostrar Datos Ver
  • Format                                   : Matroska
    Format version                           : Version 4 / Version 2
    File size                                : 4.25 GiB
    Duration                                 : 2 h 3 min
    Overall bit rate                         : 4 922 kb/s
    Movie name                               : CinemaniaHDD.net
    Encoded date                             : UTC 2018-10-16 04:09:17
    Writing application                      : mkvmerge v15.0.0 ('Duel with the Devil') 64-bit
    Writing library                          : libebml v1.3.5 + libmatroska v1.4.5

    Video
    ID                                       : 1
    Format                                   : AVC
    Format/Info                              : Advanced Video Codec
    Format profile                           : High@L4
    Format settings                          : CABAC / 5 Ref Frames
    Format settings, CABAC                   : Yes
    Format settings, RefFrames               : 5 frames
    Codec ID                                 : V_MPEG4/ISO/AVC
    Duration                                 : 2 h 3 min
    Bit rate                                 : 4 536 kb/s
    Width                                    : 1 912 pixels
    Height                                   : 804 pixels
    Display aspect ratio                     : 2.40:1
    Frame rate mode                          : Constant
    Frame rate                               : 24.000 FPS
    Color space                              : YUV
    Chroma subsampling                       : 4:2:0
    Bit depth                                : 8 bits
    Scan type                                : Progressive
    Bits/(Pixel*Frame)                       : 0.123
    Stream size                              : 3.91 GiB (92%)
    Language                                 : English
    Default                                  : Yes
    Forced                                   : No
    Color range                              : Limited
    Color primaries                          : BT.709
    Transfer characteristics                 : BT.709
    Matrix coefficients                      : BT.709

    Audio
    ID                                       : 2
    Format                                   : AC-3
    Format/Info                              : Audio Coding 3
    Format settings, Endianness              : Big
    Codec ID                                 : A_AC3
    Duration                                 : 2 h 3 min
    Bit rate mode                            : Constant
    Bit rate                                 : 384 kb/s
    Channel(s)                               : 6 channels
    Channel positions                        : Front: L C R, Side: L R, LFE
    Sampling rate                            : 48.0 kHz
    Frame rate                               : 31.250 FPS (1536 SPF)
    Bit depth                                : 16 bits
    Compression mode                         : Lossy
    Stream size                              : 339 MiB (8%)
    Language                                 : Spanish
    Service kind                             : Complete Main
    Default                                  : Yes
    Forced                                   : No

     

  • Peso: 4.25 GiB

Sinopsis

Un joven piloto es despedido de la fuerza aérea militar después de desobedecer una orden absurda; consigue un trabajo como co-piloto en una aerolínea civil. Al ser excesivamente honesto y directo, no tiene una excelente relación con sus nuevos compañeros. Durante un vuelo a Asia, su tripulación recibe un mensaje de socorro desde una isla volcánica y toman una decisión para intentar una misión de rescate.

Ficha técnica

  • Titulo original: Экипаж
  • Fecha de lanzamiento: 21-04-2016 (Russia)
  • Director: Nikolay Lebedev
  • Género: Acción, Drama
  • Puntuación: 1.0 2 votos
  • Duración:
    2h 18m

Video trailer de la película

Enlaces de descarga

Rip de Bluray

Descargar Rescate suicida (2016) WEB-DL 1080p Latino




Aportes de DPeliculasHDmega la pass es:dpeliculashdmega.org Aportes de CinemaniaHD la pass es:cinemaniahdd.com
Guardado en : Acción , Drama

Películas relacionadas

  • La balada de Buster Scruggs (2018) NF 1080p Latino

    2018
    La balada de Buster Scruggs (2018) NF 1080p Latino

    0.0 2h 12m 2018

    Los siempre singulares Joel y Ethan Cohen escriben y dirigen esta antología de seis historias del Salvaje...

    Director: Joel Coen

    Género: Comedia

    Actores: Zoe Kazan

  • La pequeña brujita (2018) AMZN 1080p Latino

    2018
    La pequeña brujita (2018) AMZN 1080p Latino

    5.0 1h 43m 2018

    Descargar La pequeña brujita (2018) AMZN 1080p Latino, Mega, Google Drive. La pequeña bruja sólo tiene...

    Director: Mike Schaerer

    Género: Comedia

    Actores: Verena Bosshard

  • Puzzle (2018) Web-DL 1080p Latino

    2018
    Puzzle (2018) Web-DL 1080p Latino

    0.0 1h 43m 2018

    Descargar Puzzle (2018) Web-DL 1080p Latino; Mega, Google Drive. Una mujer acude a Atlantic City para...

    Director: Marc Turtletaub

    Género: Drama

    Actores: Myrna Cabello

Comentarios 0