×

¿Problemas para descargar con Mozilla, EDGE? Deshabilita la opción "Abrir vinculos en una pestaña nueva" tal como lo muestra ésta imagen.

Rescate Imposible (2024) AMZN WEB-DL 1080p Latino

77 vistas

Información de Rescate Imposible (2024) AMZN WEB-DL 1080p Latino

Datos de la película

  • Calidad: WEBDL
  • Audio: Español Latino AC3 5.1 WEB-DL - Ingles AC3 5.1 WEB-DL
  • Subtitulos: Español Latino SRT- FORZADOS SRT
  • Resolución: 1920x800p
  • Formato: MKV
  • Codec: H.264
  • Encoder: Melkor
  • Mediainfo: Clic para Mostrar Datos Ver
  • Land of Bad (2024) AMZN WEB 1080p Latino.mkv
    Format                      : Matroska
    Format version              : Version 4
    File size                   : 7.71 GiB
    Duration                    : 1 h 53 min
    Overall bit rate            : 9 724 kb/s
    Movie name                  : Land of Bad (2024) CinemaniaHDD.Net
    Encoded date                : UTC 2024-04-09 07:02:52
    Writing application         : mkvmerge v56.1.0 ('My Friend') 64-bit
    Writing library             : libebml v1.4.2 + libmatroska v1.6.4
    Attachments                 : CINEMANIAHD.png
    Site                        : CinemaniaHDD.Net
    Uploader                    : Melkor

    Video
    ID                          : 1
    Format                      : AVC
    Format/Info                 : Advanced Video Codec
    Format profile              : High@L4
    Format settings             : CABAC / 4 Ref Frames
    Format settings, CABAC      : Yes
    Format settings, Reference  : 4 frames
    Codec ID                    : V_MPEG4/ISO/AVC
    Duration                    : 1 h 53 min
    Bit rate mode               : Constant
    Bit rate                    : 8 697 kb/s
    Nominal bit rate            : 10 000 kb/s
    Width                       : 1 920 pixels
    Height                      : 800 pixels
    Display aspect ratio        : 2.40:1
    Frame rate mode             : Constant
    Frame rate                  : 23.976 (24000/1001) FPS
    Color space                 : YUV
    Chroma subsampling          : 4:2:0
    Bit depth                   : 8 bits
    Scan type                   : Progressive
    Bits/(Pixel*Frame)          : 0.236
    Stream size                 : 6.90 GiB (89%)
    Title                       : Web HD1080p [CinemaniaHDD]
    Language                    : English
    Default                     : Yes
    Forced                      : Yes
    Color range                 : Limited
    Color primaries             : BT.709
    Transfer characteristics    : BT.709
    Matrix coefficients         : BT.709

    Audio #1
    ID                          : 2
    Format                      : AC-3
    Format/Info                 : Audio Coding 3
    Commercial name             : Dolby Digital
    Codec ID                    : A_AC3
    Duration                    : 1 h 53 min
    Bit rate mode               : Constant
    Bit rate                    : 384 kb/s
    Channel(s)                  : 6 channels
    Channel layout              : L R C LFE Ls Rs
    Sampling rate               : 48.0 kHz
    Frame rate                  : 31.250 FPS (1536 SPF)
    Compression mode            : Lossy
    Stream size                 : 312 MiB (4%)
    Title                       : Español Latino [CinemaniaHDD]
    Language                    : Spanish
    Service kind                : Complete Main
    Default                     : Yes
    Forced                      : Yes

    Audio #2
    ID                          : 3
    Format                      : E-AC-3
    Format/Info                 : Enhanced AC-3
    Commercial name             : Dolby Digital Plus
    Codec ID                    : A_EAC3
    Duration                    : 1 h 53 min
    Bit rate mode               : Constant
    Bit rate                    : 640 kb/s
    Channel(s)                  : 6 channels
    Channel layout              : L R C LFE Ls Rs
    Sampling rate               : 48.0 kHz
    Frame rate                  : 31.250 FPS (1536 SPF)
    Compression mode            : Lossy
    Stream size                 : 520 MiB (7%)
    Title                       : Ingles [CinemaniaHDD]
    Language                    : English
    Service kind                : Complete Main
    Default                     : No
    Forced                      : No

    Text #1
    ID                          : 4
    Format                      : UTF-8
    Codec ID                    : S_TEXT/UTF8
    Codec ID/Info               : UTF-8 Plain Text
    Duration                    : 1 h 39 min
    Bit rate                    : 1 b/s
    Count of elements           : 26
    Stream size                 : 848 Bytes (0%)
    Title                       : Forzados-SRT [CinemaniaHDD]
    Language                    : Spanish
    Default                     : Yes
    Forced                      : Yes

    Text #2
    ID                          : 5
    Format                      : UTF-8
    Codec ID                    : S_TEXT/UTF8
    Codec ID/Info               : UTF-8 Plain Text
    Duration                    : 1 h 47 min
    Bit rate                    : 51 b/s
    Count of elements           : 1230
    Stream size                 : 40.3 KiB (0%)
    Title                       : Español-SRT [CinemaniaHDD]
    Language                    : Spanish
    Default                     : No
    Forced                      : No

    Text #3
    ID                          : 6
    Format                      : UTF-8
    Codec ID                    : S_TEXT/UTF8
    Codec ID/Info               : UTF-8 Plain Text
    Duration                    : 1 h 52 min
    Bit rate                    : 48 b/s
    Count of elements           : 1295
    Stream size                 : 40.1 KiB (0%)
    Title                       : Ingles-SRT [CinemaniaHDD]
    Language                    : English
    Default                     : No
    Forced                      : No

  • Peso: 7.71 GiB

Sinopsis

Descargar Rescate Imposible (2024) AMZN WEB-DL 1080p Latino. Kinney, un controlador de apoyo aéreo con poca experiencia, se incorpora a un equipo Delta Force en una misión en Filipinas. Cuando el equipo queda atrapado sin armas, las oportunidades de sobrevivir dependen de la habilidad de Reaper, un piloto de drones de las Fuerzas Aéreas.

Ficha técnica

Video trailer de la película

Enlaces de descarga

Rip de Bluray

Descargar Rescate Imposible (2024) AMZN WEB-DL 1080p Latino




Aportes de DPeliculasHDmega la pass es:dpeliculashdmega.org Aportes de CinemaniaHD la pass es:cinemaniahdd.com Aportes recientes:cinemaniahdd.net
Guardado en : Acción , Bélica , Suspenso

Películas relacionadas

  • Familia Nacional (2023) WEB-DL 1080p Latino

    Familia Nacional (2023) WEB-DL 1080p Latino

    2023
    Familia Nacional (2023) WEB-DL 1080p Latino

    1h 43m 2023

    Descargar Familia Nacional (2023) WEB-DL 1080p Latino. Don Poli es el patriarca de una familia disfuncional...

    Director: Marcelo Tobar

    Género: Acción

    Actores: Tadeo Tovar

  • Strictly Confidential (2024) WEB-DL 1080p Latino

    Strictly Confidential (2024) WEB-DL 1080p Latino

    2024
    Strictly Confidential (2024) WEB-DL 1080p Latino

    1h 28m 2024

    Descargar Strictly Confidential (2024) WEB-DL 1080p Latino. Una joven atormentada se ve atraída por...

    Director: Damian Hurley

    Género: Misterio

    Actores: Thomas Downey

  • La Otra Cara de Dorian (2023) WEB-DL 1080p Latino

    La Otra Cara de Dorian (2023) WEB-DL 1080p Latino

    2023
    La Otra Cara de Dorian (2023) WEB-DL 1080p Latino

    1h 40m 2023

    Descargar La Otra Cara de Dorian (2023) WEB-DL 1080p Latino. Una versión moderna del cuento de Oscar...

    Director: Richard John Taylor

    Género: Drama

    Actores: Triana Terry

descargar Rescate Imposible (2024) AMZN WEB-DL 1080p Latino WEBDL 1080p gratis, Rescate Imposible (2024) AMZN WEB-DL 1080p Latino WEBDL mega 1 link, Rescate Imposible (2024) AMZN WEB-DL 1080p Latino WEBDL pelicula completa, descargar Rescate Imposible (2024) AMZN WEB-DL 1080p Latino WEBDL gratis en mega.

Rescate Imposible (2024) AMZN WEB-DL 1080p Latino pelicula full hd, Rescate Imposible (2024) AMZN WEB-DL 1080p Latino mega latino, Rescate Imposible (2024) AMZN WEB-DL 1080p Latino 4k latino, Rescate Imposible (2024) AMZN WEB-DL 1080p Latino pelicula completa, Rescate Imposible (2024) AMZN WEB-DL 1080p Latino descargar gratis, descargar Rescate Imposible (2024) AMZN WEB-DL 1080p Latino pelicula latino, Rescate Imposible (2024) AMZN WEB-DL 1080p Latino 1 link mega, Rescate Imposible (2024) AMZN WEB-DL 1080p Latino 1 link google drive, Rescate Imposible (2024) AMZN WEB-DL 1080p Latino hd 1080p latino.
Comentarios 0