Rescate en Entebbe (2018) 1080p Latino

744 vistas
1 estrella2 estrellas3 estrellas4 estrellas5 estrellas (1 votos, promedio: 3,00 de 5)
Cargando…

Información de Rescate en Entebbe (2018) 1080p Latino

Datos de la película

  • Calidad: Full 1080p
  • Audio: Español Latino AC3 5.1 DVD - Ingles AC3 5.1 BLURAY
  • Subtitulos: Español Latino SRT- FORZADOS SRT
  • Resolución: 1920x808p
  • Formato: MKV
  • Codec: H.264
  • Encoder: Dracarys
  • Mediainfo: Clic para Mostrar Datos Ver
  • Format                                   : Matroska
    Format version                           : Version 4 / Version 2
    File size                                : 3.18 GiB
    Duration                                 : 1 h 47 min
    Overall bit rate                         : 4 250 kb/s
    Movie name                               : CinemaniaHDD.net
    Encoded date                             : UTC 2018-07-12 20:15:34 / UTC 2018-07-11T21:19:44Z
    Writing application                      : mkvmerge v15.0.0 ('Duel with the Devil') 64-bit
    Writing library                          : libebml v1.3.5 + libmatroska v1.4.5 / Lavf57.7.2

    Video
    ID                                       : 1
    Format                                   : AVC
    Format/Info                              : Advanced Video Codec
    Format profile                           : High@L4.1
    Format settings                          : CABAC / 5 Ref Frames
    Format settings, CABAC                   : Yes
    Format settings, RefFrames               : 5 frames
    Codec ID                                 : V_MPEG4/ISO/AVC
    Duration                                 : 1 h 47 min
    Bit rate                                 : 3 500 kb/s
    Width                                    : 1 920 pixels
    Height                                   : 808 pixels
    Display aspect ratio                     : 2.40:1
    Frame rate mode                          : Constant
    Frame rate                               : 23.976 (24000/1001) FPS
    Color space                              : YUV
    Chroma subsampling                       : 4:2:0
    Bit depth                                : 8 bits
    Scan type                                : Progressive
    Bits/(Pixel*Frame)                       : 0.094
    Stream size                              : 2.49 GiB (78%)
    Title                                    : Rescate en Entebbe (2018) 1080p Latino
    Writing library                          : x264 core 155 r2893 b00bcaf
    Encoding settings                        : cabac=1 / ref=5 / deblock=1:0:0 / analyse=0x3:0x113 / me=hex / subme=8 / psy=1 / psy_rd=1.00:0.00 / mixed_ref=1 / me_range=16 / chroma_me=1 / trellis=2 / 8x8dct=1 / cqm=0 / deadzone=21,11 / fast_pskip=1 / chroma_qp_offset=-2 / threads=25 / lookahead_threads=4 / sliced_threads=0 / nr=0 / decimate=1 / interlaced=0 / bluray_compat=0 / constrained_intra=0 / bframes=3 / b_pyramid=2 / b_adapt=1 / b_bias=0 / direct=3 / weightb=1 / open_gop=0 / weightp=2 / keyint=240 / keyint_min=24 / scenecut=40 / intra_refresh=0 / rc_lookahead=50 / rc=abr / mbtree=1 / bitrate=3500 / ratetol=1.0 / qcomp=0.60 / qpmin=0 / qpmax=69 / qpstep=4 / vbv_maxrate=62500 / vbv_bufsize=78125 / nal_hrd=none / filler=0 / ip_ratio=1.40 / aq=1:1.00
    Language                                 : English
    Default                                  : Yes
    Forced                                   : No
    Color range                              : Limited
    Color primaries                          : BT.709
    Transfer characteristics                 : BT.709
    Matrix coefficients                      : BT.709
    Statistics Tags Issue                    : mkvmerge v15.0.0 ('Duel with the Devil') 64-bit 2018-07-12 20:15:34 / mkvmerge v15.0.0 ('Duel with the Devil') 64-bit 2018-07-12 20:15:34 / UTC 2018-07-11T21:19:44Z
    FromStats_BitRate                        : 3417338
    FromStats_Duration                       : 01:47:00.456000000
    FromStats_FrameCount                     : 153937
    FromStats_StreamSize                     : 2742608864

    Audio #1
    ID                                       : 2
    Format                                   : AC-3
    Format/Info                              : Audio Coding 3
    Format settings, Endianness              : Big
    Codec ID                                 : A_AC3
    Duration                                 : 1 h 47 min
    Bit rate mode                            : Constant
    Bit rate                                 : 384 kb/s
    Channel(s)                               : 6 channels
    Channel positions                        : Front: L C R, Side: L R, LFE
    Sampling rate                            : 48.0 kHz
    Frame rate                               : 31.250 FPS (1536 SPF)
    Bit depth                                : 16 bits
    Compression mode                         : Lossy
    Delay relative to video                  : 10 s 795 ms
    Stream size                              : 294 MiB (9%)
    Language                                 : Spanish
    Service kind                             : Complete Main
    Default                                  : Yes
    Forced                                   : No
    Statistics Tags Issue                    : mkvmerge v15.0.0 ('Duel with the Devil') 64-bit 2018-07-12 20:15:34 / mkvmerge v15.0.0 ('Duel with the Devil') 64-bit 2018-07-12 20:15:34 / UTC 2018-07-11T21:19:44Z
    FromStats_BitRate                        : 384000
    FromStats_Duration                       : 01:46:40.096000000
    FromStats_FrameCount                     : 200003
    FromStats_StreamSize                     : 307204608

    Audio #2
    ID                                       : 3
    Format                                   : AC-3
    Format/Info                              : Audio Coding 3
    Format settings, Endianness              : Big
    Codec ID                                 : A_AC3
    Duration                                 : 1 h 47 min
    Bit rate mode                            : Constant
    Bit rate                                 : 448 kb/s
    Channel(s)                               : 6 channels
    Channel positions                        : Front: L C R, Side: L R, LFE
    Sampling rate                            : 48.0 kHz
    Frame rate                               : 31.250 FPS (1536 SPF)
    Bit depth                                : 16 bits
    Compression mode                         : Lossy
    Stream size                              : 343 MiB (11%)
    Language                                 : English
    Service kind                             : Complete Main
    Default                                  : No
    Forced                                   : No
    Statistics Tags Issue                    : mkvmerge v15.0.0 ('Duel with the Devil') 64-bit 2018-07-12 20:15:34 / mkvmerge v15.0.0 ('Duel with the Devil') 64-bit 2018-07-12 20:15:34 / UTC 2018-07-11T21:19:44Z
    FromStats_BitRate                        : 448000
    FromStats_Duration                       : 01:47:00.448000000
    FromStats_FrameCount                     : 200639
    FromStats_StreamSize                     : 359545088

    Text #1
    ID                                       : 4
    Format                                   : UTF-8
    Codec ID                                 : S_TEXT/UTF8
    Codec ID/Info                            : UTF-8 Plain Text
    Title                                    : Forzados
    Language                                 : Spanish
    Default                                  : Yes
    Forced                                   : Yes
    Statistics Tags Issue                    : mkvmerge v15.0.0 ('Duel with the Devil') 64-bit 2018-07-12 20:15:34 / mkvmerge v15.0.0 ('Duel with the Devil') 64-bit 2018-07-12 20:15:34 / UTC 2018-07-11T21:19:44Z
    FromStats_BitRate                        : 1
    FromStats_Duration                       : 01:25:41.642000000
    FromStats_FrameCount                     : 17
    FromStats_StreamSize                     : 795

    Text #2
    ID                                       : 5
    Format                                   : UTF-8
    Codec ID                                 : S_TEXT/UTF8
    Codec ID/Info                            : UTF-8 Plain Text
    Language                                 : Spanish
    Default                                  : No
    Forced                                   : No
    Statistics Tags Issue                    : mkvmerge v15.0.0 ('Duel with the Devil') 64-bit 2018-07-12 20:15:34 / mkvmerge v15.0.0 ('Duel with the Devil') 64-bit 2018-07-12 20:15:34 / UTC 2018-07-11T21:19:44Z
    FromStats_BitRate                        : 50
    FromStats_Duration                       : 01:37:50.829000000
    FromStats_FrameCount                     : 1137
    FromStats_StreamSize                     : 36983

    Menu
    00:00:00.000                             : :00:00:00.000
    00:02:32.569                             : :00:02:32.569
    00:06:17.669                             : :00:06:17.669
    00:12:00.261                             : :00:12:00.261
    00:19:00.431                             : :00:19:00.431
    00:24:11.575                             : :00:24:11.575
    00:28:10.606                             : :00:28:10.606
    00:32:43.420                             : :00:32:43.420
    00:38:10.413                             : :00:38:10.413
    00:44:32.545                             : :00:44:32.545
    00:49:31.469                             : :00:49:31.468
    00:53:06.016                             : :00:53:06.016
    00:58:22.874                             : :00:58:22.708
    01:04:04.549                             : :01:04:04.549
    01:08:07.625                             : :01:08:07.625
    01:16:13.986                             : :01:16:13.986
    01:21:11.617                             : :01:21:11.617
    01:28:57.999                             : :01:28:57.999
    01:37:31.888                             : :01:37:31.846
    01:39:09.902                             : :01:39:09.902

  • Peso: 3.18 GiB

Sinopsis

El 27 de junio de 1976 un avión procedente de Tel Aviv es secuestrado. Los terroristas piden la liberación de los presos palestinos en Israel, con la amenaza de asesinar a los pasajeros del avión, convertido en rehenes. El avión aterrizó en Entebbe, Uganda, donde tuvo lugar una de las operaciones de rescate más impactantes de la historia reciente.

Ficha técnica

Video trailer de la película

Enlaces de descarga

Rip de Bluray

Descargar Rescate en Entebbe (2018) 1080p Latino




Aportes de DPeliculasHDmega la pass es:dpeliculashdmega.org Aportes de CinemaniaHD la pass es:cinemaniahdd.com
Guardado en : Crimen , Drama , Suspense

Películas relacionadas

Comentarios 0