Rescate en el norte (2019) Temporada 1NF WEB-DL 1080p

373 vistas
1 estrella2 estrellas3 estrellas4 estrellas5 estrellas (Ninguna valoración todavía)
Cargando…

Información de Rescate en el norte (2019) Temporada 1NF WEB-DL 1080p

Datos de la película

  • Calidad: WEBDL
  • Audio: Español Latino AC3 5.1 Netflix - Ingles AC3 5.1 Netflix
  • Subtitulos: Español Latino SRT- FORZADOS SRT
  • Resolución: 1920x1080
  • Formato: MKV
  • Codec: H.264
  • Encoder: Chesse92
  • Mediainfo: Clic para Mostrar Datos Ver
  • Rescate en el norte S01E01 NF WEB-DL 1080p Latino.mkv
    Format                      : Matroska
    Format version              : Version 4
    File size                   : 1.53 GiB
    Duration                    : 44 min 39 s
    Overall bit rate mode       : Variable
    Overall bit rate            : 4 915 kb/s
    Encoded date                : UTC 2019-03-01 14:52:24 / UTC 2019-02-07 17:32:23
    Writing application         : mkvmerge v11.0.0 ('Alive') 64bit
    Writing library             : libebml v1.3.4 + libmatroska v1.4.5 / Lavf58.0.0

    Video
    ID                          : 1
    Format                      : AVC
    Format/Info                 : Advanced Video Codec
    Format profile              : [email protected]
    Format settings             : CABAC / 3 Ref Frames
    Format settings, CABAC      : Yes
    Format settings, ReFrames   : 3 frames
    Codec ID                    : V_MPEG4/ISO/AVC
    Duration                    : 44 min 39 s
    Bit rate mode               : Variable
    Bit rate                    : 4 220 kb/s
    Maximum bit rate            : 6 330 kb/s
    Width                       : 1 920 pixels
    Height                      : 1 080 pixels
    Display aspect ratio        : 16:9
    Frame rate mode             : Constant
    Frame rate                  : 23.976 (24000/1001) FPS
    Color space                 : YUV
    Chroma subsampling          : 4:2:0
    Bit depth                   : 8 bits
    Scan type                   : Progressive
    Bits/(Pixel*Frame)          : 0.085
    Stream size                 : 1.26 GiB (82%)
    Writing library             : x264 core 148 r2715 7e75228
    Encoding settings           : cabac=1 / ref=3 / deblock=1:0:0 / analyse=0x1:0x111 / me=umh / subme=10 / psy=1 / psy_rd=1.00:0.00 / mixed_ref=1 / me_range=24 / chroma_me=1 / trellis=2 / 8x8dct=0 / cqm=0 / deadzone=21,11 / fast_pskip=1 / chroma_qp_offset=-2 / threads=8 / lookahead_threads=1 / sliced_threads=0 / nr=0 / decimate=1 / interlaced=0 / bluray_compat=0 / stitchable=1 / constrained_intra=0 / bframes=2 / b_pyramid=0 / b_adapt=2 / b_bias=0 / direct=3 / weightb=1 / open_gop=0 / weightp=2 / keyint=48 / keyint_min=25 / scenecut=0 / intra_refresh=0 / rc_lookahead=48 / rc=2pass / mbtree=1 / bitrate=4220 / ratetol=1.0 / qcomp=0.50 / qpmin=6 / qpmax=51 / qpstep=4 / cplxblur=20.0 / qblur=0.5 / vbv_maxrate=6330 / vbv_bufsize=8440 / nal_hrd=vbr / filler=0 / ip_ratio=1.40 / aq=1:1.00
    Default                     : Yes
    Forced                      : No
    Statistics Tags Issue       : mkvmerge v11.0.0 ('Alive') 64bit 2019-03-01 14:52:24 / mkvmerge v11.0.0 ('Alive') 64bit 2019-03-01 14:52:24 / UTC 2019-02-07 17:32:23
    FromStats_BitRate           : 4144607
    FromStats_Duration          : 00:44:39.052000000
    FromStats_FrameCount        : 64233
    FromStats_StreamSize        : 1387952341

    Audio #1
    ID                          : 2
    Format                      : AC-3
    Format/Info                 : Audio Coding 3
    Commercial name             : Dolby Digital
    Codec ID                    : A_AC3
    Duration                    : 44 min 39 s
    Bit rate mode               : Constant
    Bit rate                    : 384 kb/s
    Channel(s)                  : 6 channels
    Channel layout              : L R C LFE Ls Rs
    Sampling rate               : 48.0 kHz
    Frame rate                  : 31.250 FPS (1536 SPF)
    Bit depth                   : 16 bits
    Compression mode            : Lossy
    Stream size                 : 123 MiB (8%)
    Language                    : Spanish
    Service kind                : Complete Main
    Default                     : Yes
    Forced                      : No
    Encoded date                : UTC 2019-02-07 17:32:23
    Statistics Tags Issue       : mkvmerge v11.0.0 ('Alive') 64bit 2019-03-01 14:52:24 / mkvmerge v11.0.0 ('Alive') 64bit 2019-03-01 14:52:24 / UTC 2019-02-07 17:32:23
    FromStats_BitRate           : 384000
    FromStats_Duration          : 00:44:39.200000000
    FromStats_FrameCount        : 83725
    FromStats_StreamSize        : 128601600

    Audio #2
    ID                          : 3
    Format                      : AC-3
    Format/Info                 : Audio Coding 3
    Commercial name             : Dolby Digital
    Codec ID                    : A_AC3
    Duration                    : 44 min 39 s
    Bit rate mode               : Constant
    Bit rate                    : 384 kb/s
    Channel(s)                  : 6 channels
    Channel layout              : L R C LFE Ls Rs
    Sampling rate               : 48.0 kHz
    Frame rate                  : 31.250 FPS (1536 SPF)
    Bit depth                   : 16 bits
    Compression mode            : Lossy
    Stream size                 : 123 MiB (8%)
    Service kind                : Complete Main
    Default                     : No
    Forced                      : No
    Encoded date                : UTC 2019-02-07 17:32:23
    Statistics Tags Issue       : mkvmerge v11.0.0 ('Alive') 64bit 2019-03-01 14:52:24 / mkvmerge v11.0.0 ('Alive') 64bit 2019-03-01 14:52:24 / UTC 2019-02-07 17:32:23
    FromStats_BitRate           : 384000
    FromStats_Duration          : 00:44:39.200000000
    FromStats_FrameCount        : 83725
    FromStats_StreamSize        : 128601600

    Text #1
    ID                          : 4
    Format                      : UTF-8
    Codec ID                    : S_TEXT/UTF8
    Codec ID/Info               : UTF-8 Plain Text
    Title                       : Forced
    Language                    : Spanish
    Default                     : Yes
    Forced                      : Yes
    Statistics Tags Issue       : mkvmerge v11.0.0 ('Alive') 64bit 2019-03-01 14:52:24 / mkvmerge v11.0.0 ('Alive') 64bit 2019-03-01 14:52:24 / UTC 2019-02-07 17:32:23
    FromStats_BitRate           : 0
    FromStats_Duration          : 00:39:35.581000000
    FromStats_FrameCount        : 8
    FromStats_StreamSize        : 173

    Text #2
    ID                          : 5
    Format                      : UTF-8
    Codec ID                    : S_TEXT/UTF8
    Codec ID/Info               : UTF-8 Plain Text
    Title                       : Spanish
    Language                    : Spanish
    Default                     : No
    Forced                      : No
    Statistics Tags Issue       : mkvmerge v11.0.0 ('Alive') 64bit 2019-03-01 14:52:24 / mkvmerge v11.0.0 ('Alive') 64bit 2019-03-01 14:52:24 / UTC 2019-02-07 17:32:23
    FromStats_BitRate           : 49
    FromStats_Duration          : 00:43:32.109000000
    FromStats_FrameCount        : 600
    FromStats_StreamSize        : 16031

  • Peso: 1.5 GB Aproximado por Capitulo (17.5GB Total)

Sinopsis

El drama familiar ‘Northern Rescue’, protagonizado por William Baldwin y Kathleen Robertson. Después de la muerte de su esposa, Sarah, John West (Baldwin), empaca a sus tres hijos y se muda de su agitada vida urbana a su pequeña ciudad natal del norte para tomar el mando del servicio local de búsqueda y rescate. Una vez allí, la familia lucha con su nuevo entorno, nuevos amigos y aceptando la muerte de Sarah. La tía de los niños (Robertson) ayuda a John y sus hijos a sanar mientras ella se enfrenta a la pérdida de su hermana y su deseo de tener una familia propia.

Ficha técnica

  • Titulo original: Northern Rescue
  • Fecha de lanzamiento: 01-03-2019
  • Género: Drama, Familia, Series
  • Puntuación: 0.0 0 votos
  • Duración:
    0h 44m

Video trailer de la película

Enlaces de descarga

Rip de Bluray

Descargar Rescate en el norte (2019) Temporada 1NF WEB-DL 1080p




Aportes de DPeliculasHDmega la pass es:dpeliculashdmega.org Aportes de CinemaniaHD la pass es:cinemaniahdd.com
Guardado en : Drama , Familia , Series

Películas relacionadas

  • WiFi Ralph (2018) 4K UHD HDR Latino

    2018
    WiFi Ralph (2018) 4K UHD HDR Latino

    5.0 1h 52m 2018

    Descargar WiFi Ralph (2018) 4K UHD HDR Latino, Mega, Google Drive. Ralph sale de los recreativos y......

    Director: Rich Moore

    Género: 4K HDR

    Actores: Wayne Sermon

  • Las Dos Reinas (2018) 4K UHD HDR Latino

    2018
    Las Dos Reinas (2018) 4K UHD HDR Latino

    5.0 2h 5m 2018

    Descargar Las Dos Reinas (2018) 4K UHD HDR Latino, Mega, Google Drive. Dos mujeres rivales en el poder...

    Director: Josie Rourke

    Género: 4K HDR

    Actores: Thom Petty

  • The Mule (2018) 1080p Latino

    2018
    The Mule (2018) 1080p Latino

    0.0 1h 56m 2018

    A Earl Stone (Eastwood), un octogenario que está en quiebra, solo, y que se enfrenta a la ejecución...

    Director: Clint Eastwood

    Género: Crimen

    Actores: Victor Rasuk

  • The mule (2018) WEB-DL 1080p Latino

    2018
    The mule (2018) WEB-DL 1080p Latino

    0.0 1h 56m 2018

    A Earl Stone (Eastwood), un octogenario que está en quiebra, solo, y que se enfrenta a la ejecución...

    Director: Clint Eastwood

    Género: Crimen

    Actores: Victor Rasuk

Comentarios 0