×

¿Problemas para descargar con Mozilla, EDGE? Deshabilita la opción "Abrir vinculos en una pestaña nueva" tal como lo muestra ésta imagen.

Requiem For A Dream (2000) REMUX 1080p Latino – CMHDD

89 vistas

Información de Requiem For A Dream (2000) REMUX 1080p Latino – CMHDD

Datos de la película

  • Calidad: Full 1080p
  • Audio: Español Latino AC3 5.1 BLURAY - Ingles DTS-HD Master 7.1 BLURAY
  • Subtitulos: Español Latino SRT- FORZADOS SRT
  • Resolución: 19201080p
  • Formato: MKV
  • Codec: H.264
  • Encoder: Dracarys
  • Mediainfo: Clic para Mostrar Datos Ver
  • Format                      : Matroska
    Format version              : Version 4
    File size                   : 29.0 GiB
    Duration                    : 1 h 41 min
    Overall bit rate mode       : Variable
    Overall bit rate            : 40.9 Mb/s
    Movie name                  : Requiem For A Dream (2000) REMUX 1080p Latino - CMHDD
    Encoded date                : UTC 2023-12-21 04:43:15
    Writing application         : mkvmerge v47.0.0 ('Black Flag') 64-bit
    Writing library             : libebml v1.3.10 + libmatroska v1.5.2

    Video
    ID                          : 1
    Format                      : AVC
    Format/Info                 : Advanced Video Codec
    Format profile              : High@L4.1
    Format settings             : CABAC / 4 Ref Frames
    Format settings, CABAC      : Yes
    Format settings, Reference  : 4 frames
    Format settings, GOP        : M=3, N=12
    Codec ID                    : V_MPEG4/ISO/AVC
    Duration                    : 1 h 41 min
    Bit rate mode               : Variable
    Bit rate                    : 34.9 Mb/s
    Maximum bit rate            : 37.0 Mb/s
    Width                       : 1 920 pixels
    Height                      : 1 080 pixels
    Display aspect ratio        : 16:9
    Frame rate mode             : Constant
    Frame rate                  : 23.976 (24000/1001) FPS
    Color space                 : YUV
    Chroma subsampling          : 4:2:0
    Bit depth                   : 8 bits
    Scan type                   : Progressive
    Bits/(Pixel*Frame)          : 0.703
    Stream size                 : 24.8 GiB (85%)
    Language                    : English
    Default                     : Yes
    Forced                      : No
    Color range                 : Limited
    Color primaries             : BT.709
    Transfer characteristics    : BT.709
    Matrix coefficients         : BT.709

    Audio #1
    ID                          : 2
    Format                      : AC-3
    Format/Info                 : Audio Coding 3
    Commercial name             : Dolby Digital
    Codec ID                    : A_AC3
    Duration                    : 1 h 41 min
    Bit rate mode               : Constant
    Bit rate                    : 640 kb/s
    Channel(s)                  : 6 channels
    Channel layout              : L R C LFE Ls Rs
    Sampling rate               : 48.0 kHz
    Frame rate                  : 31.250 FPS (1536 SPF)
    Compression mode            : Lossy
    Stream size                 : 464 MiB (2%)
    Language                    : Spanish
    Service kind                : Complete Main
    Default                     : Yes
    Forced                      : No

    Audio #2
    ID                          : 3
    Format                      : E-AC-3
    Format/Info                 : Enhanced AC-3
    Commercial name             : Dolby Digital Plus
    Codec ID                    : A_EAC3
    Duration                    : 1 h 41 min
    Bit rate mode               : Constant
    Bit rate                    : 640 kb/s
    Channel(s)                  : 6 channels
    Channel layout              : L R C LFE Ls Rs
    Sampling rate               : 48.0 kHz
    Frame rate                  : 31.250 FPS (1536 SPF)
    Compression mode            : Lossy
    Stream size                 : 464 MiB (2%)
    Language                    : Spanish
    Service kind                : Complete Main
    Default                     : No
    Forced                      : No

    Audio #3
    ID                          : 6
    Format                      : DTS XLL
    Format/Info                 : Digital Theater Systems
    Commercial name             : DTS-HD Master Audio
    Codec ID                    : A_DTS
    Duration                    : 1 h 41 min
    Bit rate mode               : Variable
    Bit rate                    : 4 696 kb/s
    Channel(s)                  : 8 channels
    Channel layout              : C L R LFE Lb Rb Lss Rss
    Sampling rate               : 48.0 kHz
    Frame rate                  : 93.750 FPS (512 SPF)
    Bit depth                   : 24 bits
    Compression mode            : Lossless
    Stream size                 : 3.33 GiB (11%)
    Language                    : English
    Default                     : No
    Forced                      : No

    Text #1
    ID                          : 4
    Format                      : UTF-8
    Codec ID                    : S_TEXT/UTF8
    Codec ID/Info               : UTF-8 Plain Text
    Duration                    : 1 h 12 min
    Bit rate                    : 0 b/s
    Frame rate                  : 0.003 FPS
    Count of elements           : 15
    Stream size                 : 358 Bytes (0%)
    Title                       : F
    Language                    : Spanish
    Default                     : Yes
    Forced                      : Yes

    Text #2
    ID                          : 5
    Format                      : UTF-8
    Codec ID                    : S_TEXT/UTF8
    Codec ID/Info               : UTF-8 Plain Text
    Duration                    : 1 h 40 min
    Bit rate                    : 46 b/s
    Frame rate                  : 0.197 FPS
    Count of elements           : 1190
    Stream size                 : 33.9 KiB (0%)
    Language                    : Spanish
    Default                     : No
    Forced                      : No

    Menu
    00:00:00.000                : en:00:00:00.000
    00:00:00.792                : en:00:00:00.792
    00:00:30.572                : en:00:00:30.572
    00:05:32.207                : en:00:05:32.207
    00:09:08.423                : en:00:09:08.423
    00:14:02.675                : en:00:14:02.675
    00:19:02.850                : en:00:19:02.850
    00:23:36.832                : en:00:23:36.832
    00:27:35.112                : en:00:27:35.112
    00:29:48.745                : en:00:29:48.745
    00:32:48.758                : en:00:32:48.758
    00:37:18.695                : en:00:37:18.695
    00:49:26.005                : en:00:49:26.005
    00:56:26.425                : en:00:56:26.425
    01:06:07.213                : en:01:06:07.213
    01:13:25.985                : en:01:13:25.985
    01:21:03.025                : en:01:21:03.025
    01:29:19.354                : en:01:29:19.354

     

  • Peso: 29.0 GiB

Sinopsis

Harry (Jared Leto) vive con su atormentada madre Sara (Ellen Burstyn), y mientras él sueña con una vida mejor, ella está permanentemente a dieta para el día que pueda cumplir su mayor ilusión; aparecer en su concurso televisivo preferido. La ambición de Harry y su novia Marion (Jennifer Connelly) es hacerse ricos vendiendo droga con su amigo Tyrone (Marlon Wayans), y utilizar las ganancias para abrir un negocio propio, pero nunca llega el dinero suficiente para iniciar su plan. A pesas de todo, Harry y Marion no se resignan a vivir una existencia que consideran despreciable, por lo que harán lo impensable para conseguir la vida que anhelan.

Ficha técnica

Video trailer de la película

Enlaces de descarga

Rip de Bluray

Descargar Requiem For A Dream (2000) REMUX 1080p Latino – CMHDD




Aportes de DPeliculasHDmega la pass es:dpeliculashdmega.org Aportes de CinemaniaHD la pass es:cinemaniahdd.com Aportes recientes:cinemaniahdd.net
Guardado en : Crimen , Drama

Películas relacionadas

descargar Requiem For A Dream (2000) REMUX 1080p Latino – CMHDD Full 1080p 1080p gratis, Requiem For A Dream (2000) REMUX 1080p Latino – CMHDD Full 1080p mega 1 link, Requiem For A Dream (2000) REMUX 1080p Latino – CMHDD Full 1080p pelicula completa, descargar Requiem For A Dream (2000) REMUX 1080p Latino – CMHDD Full 1080p gratis en mega.

Requiem For A Dream (2000) REMUX 1080p Latino – CMHDD pelicula full hd, Requiem For A Dream (2000) REMUX 1080p Latino – CMHDD mega latino, Requiem For A Dream (2000) REMUX 1080p Latino – CMHDD 4k latino, Requiem For A Dream (2000) REMUX 1080p Latino – CMHDD pelicula completa, Requiem For A Dream (2000) REMUX 1080p Latino – CMHDD descargar gratis, descargar Requiem For A Dream (2000) REMUX 1080p Latino – CMHDD pelicula latino, Requiem For A Dream (2000) REMUX 1080p Latino – CMHDD 1 link mega, Requiem For A Dream (2000) REMUX 1080p Latino – CMHDD 1 link google drive, Requiem For A Dream (2000) REMUX 1080p Latino – CMHDD hd 1080p latino.
Comentarios 0