×

¿Problemas para descargar con Mozilla, EDGE? Deshabilita la opción "Abrir vinculos en una pestaña nueva" tal como lo muestra ésta imagen.

Reputación dudosa (2022) Primera Temporada WEB-DL 1080p Latino

300 vistas

Información de Reputación dudosa (2022) Primera Temporada WEB-DL 1080p Latino

Datos de la película

  • Calidad: 1080p
  • Audio: Español Latino AC3 2.0
  • Subtitulos: No
  • Resolución: 1920x1080
  • Formato: MKV
  • Codec: H.264
  • Encoder: cinemaniahdd
  • Mediainfo: Clic para Mostrar Datos Ver
  • Reputacion dudosa T01E01 WEB-DL 1080p Latino [CNMNHDD].mkv
    Format                      : Matroska
    Format version              : Version 4
    File size                   : 879 MiB
    Duration                    : 29 min 45 s
    Overall bit rate            : 4 129 kb/s
    Movie name                  : Reputacion dudosa S01E01 - La desafortunada muerte de Luis Arturo López Alcalá [1080p] - CinemaniaHDD.Net
    Encoded date                : UTC 2022-07-08 23:25:35
    Writing application         : mkvmerge v56.1.0 ('My Friend') 64-bit
    Writing library             : libebml v1.4.2 + libmatroska v1.6.4

    Video
    ID                          : 1
    Format                      : AVC
    Format/Info                 : Advanced Video Codec
    Format profile              : High@L4
    Format settings             : CABAC / 3 Ref Frames
    Format settings, CABAC      : Yes
    Format settings, Reference  : 3 frames
    Codec ID                    : V_MPEG4/ISO/AVC
    Duration                    : 29 min 45 s
    Bit rate mode               : Constant
    Bit rate                    : 4 000 kb/s
    Width                       : 1 920 pixels
    Height                      : 1 080 pixels
    Display aspect ratio        : 16:9
    Frame rate mode             : Constant
    Frame rate                  : 23.976 (24000/1001) FPS
    Color space                 : YUV
    Chroma subsampling          : 4:2:0
    Bit depth                   : 8 bits
    Scan type                   : Progressive
    Bits/(Pixel*Frame)          : 0.080
    Stream size                 : 851 MiB (97%)
    Title                       : CinemaniaHDD
    Default                     : Yes
    Forced                      : No
    Color range                 : Limited
    Color primaries             : BT.709
    Transfer characteristics    : BT.709
    Matrix coefficients         : BT.709

    Audio
    ID                          : 2
    Format                      : AAC LC
    Format/Info                 : Advanced Audio Codec Low Complexity
    Codec ID                    : A_AAC-2
    Duration                    : 29 min 45 s
    Bit rate                    : 128 kb/s
    Channel(s)                  : 2 channels
    Channel layout              : L R
    Sampling rate               : 44.1 kHz
    Frame rate                  : 43.066 FPS (1024 SPF)
    Compression mode            : Lossy
    Stream size                 : 27.2 MiB (3%)
    Title                       : Español latino [CinemaniaHDD]
    Language                    : Spanish
    Default                     : No
    Forced                      : No

    Text
    ID                          : 3
    Format                      : UTF-8
    Codec ID                    : S_TEXT/UTF8
    Codec ID/Info               : UTF-8 Plain Text
    Duration                    : 27 min 34 s
    Bit rate                    : 56 b/s
    Count of elements           : 353
    Stream size                 : 11.5 KiB (0%)
    Title                       : Portugues [CinemaniaHDD]
    Language                    : Portuguese
    Default                     : No
    Forced                      : No

     

  • Peso: 879 MiB Aprox ---- 5 GiB in 8 Chapters.

Sinopsis

Luis Arturo López Alcalá, muere inesperadamente. Julia es la encargada de llevar el caso y su amante. Acompañada por el espíritu de Luis, Julia descubrirá que hay más secretos de los que pensó y que el asesino está en la familia.

Ficha técnica

Video trailer de la película

Enlaces de descarga

Rip de Bluray

Descargar Reputación dudosa (2022) Primera Temporada WEB-DL 1080p Latino




Aportes de DPeliculasHDmega la pass es:dpeliculashdmega.org Aportes de CinemaniaHD la pass es:cinemaniahdd.com
Guardado en : Acción , Comedia , Series , Suspenso

Películas relacionadas

descargar Reputación dudosa (2022) Primera Temporada WEB-DL 1080p Latino 1080p 1080p gratis, Reputación dudosa (2022) Primera Temporada WEB-DL 1080p Latino 1080p mega 1 link, Reputación dudosa (2022) Primera Temporada WEB-DL 1080p Latino 1080p serie completa, descargar Reputación dudosa (2022) Primera Temporada WEB-DL 1080p Latino 1080p gratis en mega.

Reputación dudosa (2022) Primera Temporada WEB-DL 1080p Latino pelicula full hd, Reputación dudosa (2022) Primera Temporada WEB-DL 1080p Latino mega latino, Reputación dudosa (2022) Primera Temporada WEB-DL 1080p Latino 4k latino, Reputación dudosa (2022) Primera Temporada WEB-DL 1080p Latino pelicula completa, Reputación dudosa (2022) Primera Temporada WEB-DL 1080p Latino descargar gratis, descargar Reputación dudosa (2022) Primera Temporada WEB-DL 1080p Latino pelicula latino, Reputación dudosa (2022) Primera Temporada WEB-DL 1080p Latino 1 link mega, Reputación dudosa (2022) Primera Temporada WEB-DL 1080p Latino 1 link google drive, Reputación dudosa (2022) Primera Temporada WEB-DL 1080p Latino hd 1080p latino.
Comentarios 0