Reprisal (2019) Primera Temporada AMZN WEB-DL 1080p Latino

101 vistas
1 estrella2 estrellas3 estrellas4 estrellas5 estrellas (4 votos, promedio: 5,00 de 5)
Cargando...

Información de Reprisal (2019) Primera Temporada AMZN WEB-DL 1080p Latino

Datos de la película

  • Calidad: 1080p
  • Audio: Español Latino AC3 2.0 WEB-DL - Ingles AC3 5.1 WEB-DL
  • Subtitulos: Español Latino SRT- FORZADOS SRT
  • Resolución: 1920x800
  • Formato: MKV
  • Codec: H.264
  • Encoder: cinemaniahdd
  • Mediainfo: Clic para Mostrar Datos Ver
  • Reprisal T01E01 AMZN WEB-DL 1080p Latino [CNMNHDD].mkv
    Format                      : Matroska
    Format version              : Version 4
    File size                   : 2.87 GiB
    Duration                    : 56 min 27 s
    Overall bit rate            : 7 288 kb/s
    Movie name                  : Reprisal T01E01 - CinemaniaHDD.Net
    Encoded date                : UTC 2021-07-13 02:54:15
    Writing application         : mkvmerge v56.1.0 ('My Friend') 64-bit
    Writing library             : libebml v1.4.2 + libmatroska v1.6.4

    Video
    ID                          : 1
    Format                      : AVC
    Format/Info                 : Advanced Video Codec
    Format profile              : High@L4
    Format settings             : CABAC / 4 Ref Frames
    Format settings, CABAC      : Yes
    Format settings, Reference  : 4 frames
    Codec ID                    : V_MPEG4/ISO/AVC
    Duration                    : 56 min 27 s
    Bit rate mode               : Constant
    Bit rate                    : 6 261 kb/s
    Nominal bit rate            : 10 000 kb/s
    Width                       : 1 920 pixels
    Height                      : 800 pixels
    Display aspect ratio        : 2.40:1
    Frame rate mode             : Constant
    Frame rate                  : 23.976 (24000/1001) FPS
    Color space                 : YUV
    Chroma subsampling          : 4:2:0
    Bit depth                   : 8 bits
    Scan type                   : Progressive
    Bits/(Pixel*Frame)          : 0.170
    Stream size                 : 2.47 GiB (86%)
    Title                       : CinemaniaHDD
    Default                     : Yes
    Forced                      : No
    Color range                 : Limited
    Color primaries             : BT.709
    Transfer characteristics    : BT.709
    Matrix coefficients         : BT.709

    Audio #1
    ID                          : 2
    Format                      : AC-3
    Format/Info                 : Audio Coding 3
    Commercial name             : Dolby Digital
    Codec ID                    : A_AC3
    Duration                    : 56 min 27 s
    Bit rate mode               : Constant
    Bit rate                    : 384 kb/s
    Channel(s)                  : 2 channels
    Channel layout              : L R
    Sampling rate               : 48.0 kHz
    Frame rate                  : 31.250 FPS (1536 SPF)
    Compression mode            : Lossy
    Stream size                 : 155 MiB (5%)
    Title                       : Español latino [CinemaniaHDD]
    Language                    : Spanish
    Service kind                : Complete Main
    Default                     : Yes
    Forced                      : No

    Audio #2
    ID                          : 3
    Format                      : E-AC-3
    Format/Info                 : Enhanced AC-3
    Commercial name             : Dolby Digital Plus
    Codec ID                    : A_EAC3
    Duration                    : 56 min 27 s
    Bit rate mode               : Constant
    Bit rate                    : 640 kb/s
    Channel(s)                  : 6 channels
    Channel layout              : L R C LFE Ls Rs
    Sampling rate               : 48.0 kHz
    Frame rate                  : 31.250 FPS (1536 SPF)
    Compression mode            : Lossy
    Stream size                 : 258 MiB (9%)
    Title                       : Inglés [CinemaniaHDD]
    Language                    : English
    Service kind                : Complete Main
    Default                     : No
    Forced                      : No

    Text #1
    ID                          : 4
    Format                      : UTF-8
    Codec ID                    : S_TEXT/UTF8
    Codec ID/Info               : UTF-8 Plain Text
    Duration                    : 10 s 105 ms
    Bit rate                    : 59 b/s
    Count of elements           : 2
    Stream size                 : 75.0 Bytes (0%)
    Title                       : Forzados [CinemaniaHDD]
    Language                    : Spanish
    Default                     : Yes
    Forced                      : Yes

    Text #2
    ID                          : 5
    Format                      : UTF-8
    Codec ID                    : S_TEXT/UTF8
    Codec ID/Info               : UTF-8 Plain Text
    Duration                    : 52 min 48 s
    Bit rate                    : 49 b/s
    Count of elements           : 650
    Stream size                 : 19.3 KiB (0%)
    Title                       : Español latino [CinemaniaHDD]
    Language                    : Spanish
    Default                     : No
    Forced                      : No

    Text #3
    ID                          : 6
    Format                      : UTF-8
    Codec ID                    : S_TEXT/UTF8
    Codec ID/Info               : UTF-8 Plain Text
    Duration                    : 54 min 10 s
    Bit rate                    : 64 b/s
    Count of elements           : 1026
    Stream size                 : 25.4 KiB (0%)
    Title                       : Inglés [CC] [CinemaniaHDD]
    Language                    : English
    Default                     : No
    Forced                      : No

     

  • Peso: 2.87 GiB C/U --- 9 CAPITULOS AGREGADOS

Sinopsis

Sigue el viaje de venganza de una mujer contra la poderosa pandilla que intentó matarla. Después de ser dada por muerta, Doris resurgió años después y a muchas millas de distancia en una nueva y pintoresca vida en Detroit.

9 CAPITULOS AGREGADOS

Ficha técnica

  • Titulo original: Reprisal
  • Fecha de lanzamiento: 06-12-2019 (US)
  • Director: Josh Corbin
  • Género: Crimen, Drama, Series
  • Puntuación: 5.0 4 votos
  • Duración:
    0h 56m

Video trailer de la película

Enlaces de descarga

Rip de Bluray

Descargar Reprisal (2019) Primera Temporada AMZN WEB-DL 1080p Latino




Aportes de DPeliculasHDmega la pass es:dpeliculashdmega.org Aportes de CinemaniaHD la pass es:cinemaniahdd.com
Guardado en : Crimen , Drama , Series

Películas relacionadas

Reprisal (2019) Primera Temporada AMZN WEB-DL 1080p Latino pelicula full hd, Reprisal (2019) Primera Temporada AMZN WEB-DL 1080p Latino mega latino, Reprisal (2019) Primera Temporada AMZN WEB-DL 1080p Latino 4k latino, Reprisal (2019) Primera Temporada AMZN WEB-DL 1080p Latino pelicula completa, Reprisal (2019) Primera Temporada AMZN WEB-DL 1080p Latino descargar gratis, descargar Reprisal (2019) Primera Temporada AMZN WEB-DL 1080p Latino pelicula latino, Reprisal (2019) Primera Temporada AMZN WEB-DL 1080p Latino 1 link mega, Reprisal (2019) Primera Temporada AMZN WEB-DL 1080p Latino 1 link google drive, Reprisal (2019) Primera Temporada AMZN WEB-DL 1080p Latino hd 1080p latino.
Comentarios 0