×

¿Problemas para descargar con Mozilla, EDGE? Deshabilita la opción "Abrir vinculos en una pestaña nueva" tal como lo muestra ésta imagen.

Renfield (2023) REMUX 1080p Latino

239 vistas

Información de Renfield (2023) REMUX 1080p Latino

Datos de la película

  • Calidad: Full 1080p
  • Audio: Se especifica abajo de la Sinopsis
  • Subtitulos: Español Latino PGS - Ingles PGS
  • Resolución: 1920x1080p
  • Formato: MKV
  • Codec: H.264
  • Encoder: Melkor
  • Mediainfo: Clic para Mostrar Datos Ver
  • Renfield (2023) REMUX 1080p Latino.mkv
    Format                      : Matroska
    Format version              : Version 4
    File size                   : 24.9 GiB
    Duration                    : 1 h 33 min
    Overall bit rate mode       : Variable
    Overall bit rate            : 38.1 Mb/s
    Movie name                  : Renfield (2023) CinemaniaHDD.Net
    Encoded date                : UTC 2023-06-01 01:26:23
    Writing application         : mkvmerge v56.1.0 ('My Friend') 64-bit
    Writing library             : libebml v1.4.2 + libmatroska v1.6.4
    Attachments                 : CINEMANIAHD.png
    Site                        : CinemaniaHDD.Net
    Uploader                    : Melkor

    Video
    ID                          : 1
    Format                      : AVC
    Format/Info                 : Advanced Video Codec
    Format profile              : High@L4.1
    Format settings             : CABAC / 4 Ref Frames
    Format settings, CABAC      : Yes
    Format settings, Reference  : 4 frames
    Codec ID                    : V_MPEG4/ISO/AVC
    Duration                    : 1 h 33 min
    Bit rate mode               : Variable
    Bit rate                    : 29.8 Mb/s
    Maximum bit rate            : 31.5 Mb/s
    Width                       : 1 920 pixels
    Height                      : 1 080 pixels
    Display aspect ratio        : 16:9
    Frame rate mode             : Constant
    Frame rate                  : 23.976 (24000/1001) FPS
    Color space                 : YUV
    Chroma subsampling          : 4:2:0
    Bit depth                   : 8 bits
    Scan type                   : Progressive
    Bits/(Pixel*Frame)          : 0.600
    Stream size                 : 19.5 GiB (78%)
    Title                       : REMUX HD1080p [CinemaniaHDD]
    Language                    : English
    Default                     : Yes
    Forced                      : Yes

    Audio #1
    ID                          : 2
    Format                      : DTS
    Format/Info                 : Digital Theater Systems
    Codec ID                    : A_DTS
    Duration                    : 1 h 33 min
    Bit rate mode               : Constant
    Bit rate                    : 1 509 kb/s
    Channel(s)                  : 6 channels
    Channel layout              : C L R Ls Rs LFE
    Sampling rate               : 48.0 kHz
    Frame rate                  : 93.750 FPS (512 SPF)
    Bit depth                   : 24 bits
    Compression mode            : Lossy
    Stream size                 : 1 010 MiB (4%)
    Title                       : Español Latino Core DTS [CinemaniaHDD]
    Language                    : Spanish
    Default                     : Yes
    Forced                      : Yes

    Audio #2
    ID                          : 3
    Format                      : DTS XBR
    Format/Info                 : Digital Theater Systems
    Commercial name             : DTS-HD High Resolution Audio
    Codec ID                    : A_DTS
    Duration                    : 1 h 33 min
    Bit rate mode               : Constant
    Bit rate                    : 2 046 kb/s
    Channel(s)                  : 8 channels
    Channel layout              : C L R LFE Lb Rb Lss Rss
    Sampling rate               : 48.0 kHz
    Frame rate                  : 93.750 FPS (512 SPF)
    Bit depth                   : 24 bits
    Compression mode            : Lossy
    Stream size                 : 1.34 GiB (5%)
    Title                       : Español Latino [CinemaniaHDD]
    Language                    : Spanish
    Default                     : No
    Forced                      : No

    Audio #3
    ID                          : 4
    Format                      : DTS XLL
    Format/Info                 : Digital Theater Systems
    Commercial name             : DTS-HD Master Audio
    Codec ID                    : A_DTS
    Duration                    : 1 h 33 min
    Bit rate mode               : Variable
    Bit rate                    : 4 720 kb/s
    Channel(s)                  : 8 channels
    Channel layout              : C L R LFE Lb Rb Lss Rss
    Sampling rate               : 48.0 kHz
    Frame rate                  : 93.750 FPS (512 SPF)
    Bit depth                   : 24 bits
    Compression mode            : Lossless
    Stream size                 : 3.08 GiB (12%)
    Title                       : Ingles [CinemaniaHDD]
    Language                    : English
    Default                     : No
    Forced                      : No

    Text #1
    ID                          : 5
    Format                      : PGS
    Muxing mode                 : zlib
    Codec ID                    : S_HDMV/PGS
    Codec ID/Info               : Picture based subtitle format used on BDs/HD-DVDs
    Duration                    : 1 h 32 min
    Bit rate                    : 420 b/s
    Count of elements           : 28
    Stream size                 : 285 KiB (0%)
    Title                       : Forzados-PGS [CinemaniaHDD]
    Language                    : Spanish
    Default                     : No
    Forced                      : No

    Text #2
    ID                          : 6
    Format                      : PGS
    Muxing mode                 : zlib
    Codec ID                    : S_HDMV/PGS
    Codec ID/Info               : Picture based subtitle format used on BDs/HD-DVDs
    Duration                    : 1 h 33 min
    Bit rate                    : 37.9 kb/s
    Count of elements           : 2972
    Stream size                 : 25.3 MiB (0%)
    Title                       : Español-PGS [CinemaniaHDD]
    Language                    : Spanish
    Default                     : No
    Forced                      : No

    Text #3
    ID                          : 7
    Format                      : PGS
    Muxing mode                 : zlib
    Codec ID                    : S_HDMV/PGS
    Codec ID/Info               : Picture based subtitle format used on BDs/HD-DVDs
    Duration                    : 1 h 28 min
    Bit rate                    : 55.2 kb/s
    Count of elements           : 3566
    Stream size                 : 35.0 MiB (0%)
    Title                       : Ingles-PGS [CinemaniaHDD]
    Language                    : English
    Default                     : No
    Forced                      : No

    Text #4
    ID                          : 8
    Format                      : UTF-8
    Codec ID                    : S_TEXT/UTF8
    Codec ID/Info               : UTF-8 Plain Text
    Duration                    : 1 h 32 min
    Bit rate                    : 0 b/s
    Count of elements           : 13
    Stream size                 : 351 Bytes (0%)
    Title                       : Forzados-SRT [CinemaniaHDD]
    Language                    : Spanish
    Default                     : Yes
    Forced                      : Yes

    Text #5
    ID                          : 9
    Format                      : UTF-8
    Codec ID                    : S_TEXT/UTF8
    Codec ID/Info               : UTF-8 Plain Text
    Duration                    : 1 h 33 min
    Bit rate                    : 59 b/s
    Count of elements           : 1486
    Stream size                 : 40.2 KiB (0%)
    Title                       : Español-SRT [CinemaniaHDD]
    Language                    : Spanish
    Default                     : No
    Forced                      : No

    Menu
    00:00:00.000                : :Chapter 01
    00:04:55.378                : :Chapter 02
    00:07:48.134                : :Chapter 03
    00:11:31.566                : :Chapter 04
    00:16:47.590                : :Chapter 05
    00:21:51.810                : :Chapter 06
    00:26:56.031                : :Chapter 07
    00:31:26.676                : :Chapter 08
    00:35:39.262                : :Chapter 09
    00:38:21.549                : :Chapter 10
    00:41:48.214                : :Chapter 11
    00:46:53.519                : :Chapter 12
    00:53:08.685                : :Chapter 13
    00:57:08.717                : :Chapter 14
    01:01:43.450                : :Chapter 15
    01:07:10.068                : :Chapter 16
    01:11:41.047                : :Chapter 17
    01:19:12.957                : :Chapter 18
    01:24:21.640                : :Chapter 19
    01:26:50.872                : :Chapter 20

  • Peso: 24.9 GiB

Sinopsis

Descargar Renfield (2023) REMUX 1080p Latino. En este moderno y monstruoso relato sobre el fiel ayudante de Drácula, Renfield se ve obligado a procurarle víctimas a su amo y hacer todo aquello que este le ordene, por inmoral que sea. Pero ahora, tras siglos de servidumbre, Renfield está listo para descubrir si hay vida lejos de la alargada sombra del Príncipe de las Tinieblas. ¿El problema? Que no sabe cómo romper esa relación de dependencia.

Español Latino DTS-HD 7.1 & Core DTS 5.1 BD – Ingles DTS-HD 7.1 BD

Ficha técnica

Video trailer de la película

Enlaces de descarga

Rip de Bluray

Descargar Renfield (2023) REMUX 1080p Latino




Aportes de DPeliculasHDmega la pass es:dpeliculashdmega.org Aportes de CinemaniaHD la pass es:cinemaniahdd.com Aportes recientes:cinemaniahdd.net
Guardado en : Comedia , Fantasía , Remux , Terror

Películas relacionadas

descargar Renfield (2023) REMUX 1080p Latino Full 1080p 1080p gratis, Renfield (2023) REMUX 1080p Latino Full 1080p mega 1 link, Renfield (2023) REMUX 1080p Latino Full 1080p pelicula completa, descargar Renfield (2023) REMUX 1080p Latino Full 1080p gratis en mega.

Renfield (2023) REMUX 1080p Latino pelicula full hd, Renfield (2023) REMUX 1080p Latino mega latino, Renfield (2023) REMUX 1080p Latino 4k latino, Renfield (2023) REMUX 1080p Latino pelicula completa, Renfield (2023) REMUX 1080p Latino descargar gratis, descargar Renfield (2023) REMUX 1080p Latino pelicula latino, Renfield (2023) REMUX 1080p Latino 1 link mega, Renfield (2023) REMUX 1080p Latino 1 link google drive, Renfield (2023) REMUX 1080p Latino hd 1080p latino.
Comentarios 0