×

¿Problemas para descargar con Mozilla, EDGE? Deshabilita la opción "Abrir vinculos en una pestaña nueva" tal como lo muestra ésta imagen.

Renfield: Asistente de vampiro (2023) HD 1080p Latino

317 vistas

Información de Renfield: Asistente de vampiro (2023) HD 1080p Latino

Datos de la película

  • Calidad: 1080p
  • Audio: Español Latino AC3 5.1 WEB-DL - Ingles AC3 5.1 BLURAY
  • Subtitulos: Español Latino SRT- FORZADOS SRT
  • Resolución: 1920x804p
  • Formato: MKV
  • Codec: H.264
  • Encoder: Melkor
  • Mediainfo: Clic para Mostrar Datos Ver
  • Renfield (2023) HD1080p Latino.mkv
    Format                      : Matroska
    Format version              : Version 4
    File size                   : 2.98 GiB
    Duration                    : 1 h 33 min
    Overall bit rate            : 4 559 kb/s
    Movie name                  : Renfield (2023) CinemaniaHDD.Net
    Encoded date                : UTC 2023-05-28 17:45:21
    Writing application         : mkvmerge v56.1.0 ('My Friend') 64-bit
    Writing library             : libebml v1.4.2 + libmatroska v1.6.4
    Attachments                 : CINEMANIAHD.png
    Site                        : CinemaniaHDD.Net
    Uploader                    : Melkor

    Video
    ID                          : 1
    Format                      : AVC
    Format/Info                 : Advanced Video Codec
    Format profile              : High@L4.1
    Format settings             : CABAC / 5 Ref Frames
    Format settings, CABAC      : Yes
    Format settings, Reference  : 5 frames
    Codec ID                    : V_MPEG4/ISO/AVC
    Duration                    : 1 h 33 min
    Bit rate                    : 3 500 kb/s
    Width                       : 1 920 pixels
    Height                      : 804 pixels
    Display aspect ratio        : 2.40:1
    Frame rate mode             : Constant
    Frame rate                  : 23.976 (24000/1001) FPS
    Color space                 : YUV
    Chroma subsampling          : 4:2:0
    Bit depth                   : 8 bits
    Scan type                   : Progressive
    Bits/(Pixel*Frame)          : 0.095
    Stream size                 : 2.39 GiB (80%)
    Title                       : HD1080p [CinemaniaHDD]
    Writing library             : x264 core 163 r3059 b684ebe0
    Encoding settings           : cabac=1 / ref=5 / deblock=1:-1:-1 / analyse=0x3:0x133 / me=umh / subme=9 / psy=1 / psy_rd=1.00:0.15 / mixed_ref=1 / me_range=16 / chroma_me=1 / trellis=2 / 8x8dct=1 / cqm=0 / deadzone=21,11 / fast_pskip=1 / chroma_qp_offset=-3 / threads=24 / lookahead_threads=2 / sliced_threads=0 / nr=0 / decimate=1 / interlaced=0 / bluray_compat=0 / constrained_intra=0 / bframes=3 / b_pyramid=2 / b_adapt=2 / b_bias=0 / direct=3 / weightb=1 / open_gop=0 / weightp=2 / keyint=240 / keyint_min=24 / scenecut=40 / intra_refresh=0 / rc_lookahead=60 / rc=abr / mbtree=1 / bitrate=3500 / ratetol=1.0 / qcomp=0.60 / qpmin=0 / qpmax=69 / qpstep=4 / vbv_maxrate=62500 / vbv_bufsize=78125 / nal_hrd=none / filler=0 / ip_ratio=1.40 / aq=1:1.00
    Default                     : Yes
    Forced                      : Yes
    Color range                 : Limited
    Color primaries             : BT.709
    Transfer characteristics    : BT.709
    Matrix coefficients         : BT.709

    Audio #1
    ID                          : 2
    Format                      : AC-3
    Format/Info                 : Audio Coding 3
    Commercial name             : Dolby Digital
    Codec ID                    : A_AC3
    Duration                    : 1 h 33 min
    Bit rate mode               : Constant
    Bit rate                    : 448 kb/s
    Channel(s)                  : 6 channels
    Channel layout              : L R C LFE Ls Rs
    Sampling rate               : 48.0 kHz
    Frame rate                  : 31.250 FPS (1536 SPF)
    Compression mode            : Lossy
    Delay relative to video     : 17 ms
    Stream size                 : 300 MiB (10%)
    Title                       : Español Latino [CinemaniaHDD]
    Language                    : Spanish
    Service kind                : Complete Main
    Default                     : Yes
    Forced                      : Yes

    Audio #2
    ID                          : 3
    Format                      : AC-3
    Format/Info                 : Audio Coding 3
    Commercial name             : Dolby Digital
    Codec ID                    : A_AC3
    Duration                    : 1 h 33 min
    Bit rate mode               : Constant
    Bit rate                    : 448 kb/s
    Channel(s)                  : 6 channels
    Channel layout              : L R C LFE Ls Rs
    Sampling rate               : 48.0 kHz
    Frame rate                  : 31.250 FPS (1536 SPF)
    Compression mode            : Lossy
    Delay relative to video     : -5 ms
    Stream size                 : 300 MiB (10%)
    Title                       : Ingles [CinemaniaHDD]
    Language                    : English
    Service kind                : Complete Main
    Default                     : No
    Forced                      : No

    Text #1
    ID                          : 4
    Format                      : UTF-8
    Codec ID                    : S_TEXT/UTF8
    Codec ID/Info               : UTF-8 Plain Text
    Duration                    : 1 h 32 min
    Bit rate                    : 0 b/s
    Count of elements           : 13
    Stream size                 : 351 Bytes (0%)
    Title                       : Forzados-SRT [CinemaniaHDD]
    Language                    : Spanish
    Default                     : Yes
    Forced                      : Yes

    Text #2
    ID                          : 5
    Format                      : UTF-8
    Codec ID                    : S_TEXT/UTF8
    Codec ID/Info               : UTF-8 Plain Text
    Duration                    : 1 h 33 min
    Bit rate                    : 59 b/s
    Count of elements           : 1486
    Stream size                 : 40.2 KiB (0%)
    Title                       : Español-SRT [CinemaniaHDD]
    Language                    : Spanish
    Default                     : No
    Forced                      : No

    Text #3
    ID                          : 6
    Format                      : UTF-8
    Codec ID                    : S_TEXT/UTF8
    Codec ID/Info               : UTF-8 Plain Text
    Duration                    : 1 h 28 min
    Bit rate                    : 72 b/s
    Count of elements           : 1599
    Stream size                 : 46.9 KiB (0%)
    Title                       : Ingles-SRT [CinemaniaHDD]
    Language                    : English
    Default                     : No
    Forced                      : No

    Menu
    00:00:00.000                : :Chapter 1
    00:04:55.420                : :Chapter 2
    00:07:48.134                : :Chapter 3
    00:11:31.608                : :Chapter 4
    00:16:47.590                : :Chapter 5
    00:21:51.811                : :Chapter 6
    00:26:56.031                : :Chapter 7
    00:31:26.676                : :Chapter 8
    00:35:39.262                : :Chapter 9
    00:38:21.549                : :Chapter 10
    00:41:48.214                : :Chapter 11
    00:46:53.519                : :Chapter 12
    00:53:08.852                : :Chapter 13
    00:57:08.884                : :Chapter 14
    01:01:43.450                : :Chapter 15
    01:07:10.068                : :Chapter 16
    01:11:41.047                : :Chapter 17
    01:19:12.957                : :Chapter 18
    01:24:21.890                : :Chapter 19
    01:26:50.872                : :Chapter 20

  • Peso: 2.98 GiB

Sinopsis

Descargar Renfield: Asistente de vampiro (2023) HD 1080p Latino. En este moderno y monstruoso relato sobre el fiel ayudante de Drácula, Renfield se ve obligado a procurarle víctimas a su amo y hacer todo aquello que este le ordene, por inmoral que sea. Pero ahora, tras siglos de servidumbre, Renfield está listo para descubrir si hay vida lejos de la alargada sombra del Príncipe de las Tinieblas. ¿El problema? Que no sabe cómo romper esa relación de dependencia.

Ficha técnica

Video trailer de la película

Enlaces de descarga

Rip de Bluray

Descargar Renfield: Asistente de vampiro (2023) HD 1080p Latino




Aportes de DPeliculasHDmega la pass es:dpeliculashdmega.org Aportes de CinemaniaHD la pass es:cinemaniahdd.com Aportes recientes:cinemaniahdd.net
Guardado en : Comedia , Fantasía , HD 1080p , Terror

Películas relacionadas

descargar Renfield: Asistente de vampiro (2023) HD 1080p Latino 1080p 1080p gratis, Renfield: Asistente de vampiro (2023) HD 1080p Latino 1080p mega 1 link, Renfield: Asistente de vampiro (2023) HD 1080p Latino 1080p pelicula completa, descargar Renfield: Asistente de vampiro (2023) HD 1080p Latino 1080p gratis en mega.

Renfield: Asistente de vampiro (2023) HD 1080p Latino pelicula full hd, Renfield: Asistente de vampiro (2023) HD 1080p Latino mega latino, Renfield: Asistente de vampiro (2023) HD 1080p Latino 4k latino, Renfield: Asistente de vampiro (2023) HD 1080p Latino pelicula completa, Renfield: Asistente de vampiro (2023) HD 1080p Latino descargar gratis, descargar Renfield: Asistente de vampiro (2023) HD 1080p Latino pelicula latino, Renfield: Asistente de vampiro (2023) HD 1080p Latino 1 link mega, Renfield: Asistente de vampiro (2023) HD 1080p Latino 1 link google drive, Renfield: Asistente de vampiro (2023) HD 1080p Latino hd 1080p latino.
Comentarios 0