×

¿Problemas para descargar con Mozilla, EDGE? Deshabilita la opción "Abrir vinculos en una pestaña nueva" tal como lo muestra ésta imagen.

Renegade Nell (2024) Temporada 1 WEB-DL 1080p Latino

35 vistas

Información de Renegade Nell (2024) Temporada 1 WEB-DL 1080p Latino

Datos de la película

  • Calidad: WEBDL
  • Audio: Se especifica abajo de la Sinopsis
  • Subtitulos: Español Latino SRT- FORZADOS SRT
  • Resolución: 1920x1080p
  • Formato: MKV
  • Codec: H.264
  • Encoder: Melkor
  • Mediainfo: Clic para Mostrar Datos Ver
  • Renegade Nell S01E01  (2024) WEB 1080p Latino.mkv
    Format                      : Matroska
    Format version              : Version 4
    File size                   : 2.76 GiB
    Duration                    : 51 min 29 s
    Overall bit rate mode       : Variable
    Overall bit rate            : 7 664 kb/s
    Movie name                  : Renegade Nell S01E01 - Dont.Call.Me.Nelly CinemaniaHDD.Net
    Encoded date                : UTC 2024-03-31 06:21:55
    Writing application         : mkvmerge v56.1.0 ('My Friend') 64-bit
    Writing library             : libebml v1.4.2 + libmatroska v1.6.4
    Attachments                 : CINEMANIAHD.png
    Site                        : CinemaniaHDD.Net
    Uploader                    : Melkor

    Video
    ID                          : 1
    Format                      : AVC
    Format/Info                 : Advanced Video Codec
    Format profile              : High@L4
    Format settings             : CABAC / 4 Ref Frames
    Format settings, CABAC      : Yes
    Format settings, Reference  : 4 frames
    Codec ID                    : V_MPEG4/ISO/AVC
    Duration                    : 51 min 29 s
    Bit rate mode               : Variable
    Bit rate                    : 6 637 kb/s
    Maximum bit rate            : 12.7 Mb/s
    Width                       : 1 920 pixels
    Height                      : 1 080 pixels
    Display aspect ratio        : 16:9
    Frame rate mode             : Constant
    Frame rate                  : 23.976 (24000/1001) FPS
    Color space                 : YUV
    Chroma subsampling          : 4:2:0
    Bit depth                   : 8 bits
    Scan type                   : Progressive
    Bits/(Pixel*Frame)          : 0.134
    Stream size                 : 2.39 GiB (87%)
    Title                       : WEB HD1080p [CinemaniaHDD]
    Default                     : Yes
    Forced                      : Yes
    Color range                 : Limited
    Color primaries             : BT.709
    Transfer characteristics    : BT.709
    Matrix coefficients         : BT.709

    Audio #1
    ID                          : 2
    Format                      : E-AC-3
    Format/Info                 : Enhanced AC-3
    Commercial name             : Dolby Digital Plus
    Codec ID                    : A_EAC3
    Duration                    : 51 min 29 s
    Bit rate mode               : Constant
    Bit rate                    : 256 kb/s
    Channel(s)                  : 6 channels
    Channel layout              : L R C LFE Ls Rs
    Sampling rate               : 48.0 kHz
    Frame rate                  : 31.250 FPS (1536 SPF)
    Compression mode            : Lossy
    Stream size                 : 94.3 MiB (3%)
    Title                       : Español Latino [CinemaniaHDD]
    Language                    : Spanish
    Service kind                : Complete Main
    Default                     : Yes
    Forced                      : Yes

    Audio #2
    ID                          : 3
    Format                      : E-AC-3 JOC
    Format/Info                 : Enhanced AC-3 with Joint Object Coding
    Commercial name             : Dolby Digital Plus with Dolby Atmos
    Codec ID                    : A_EAC3
    Duration                    : 51 min 29 s
    Bit rate mode               : Constant
    Bit rate                    : 768 kb/s
    Channel(s)                  : 6 channels
    Channel layout              : L R C LFE Ls Rs
    Sampling rate               : 48.0 kHz
    Frame rate                  : 31.250 FPS (1536 SPF)
    Compression mode            : Lossy
    Stream size                 : 283 MiB (10%)
    Language                    : English
    Service kind                : Complete Main
    Default                     : Yes
    Forced                      : No
    Complexity index            : 16
    Number of dynamic objects   : 15
    Bed channel count           : 1 channel
    Bed channel configuration   : LFE

    Text #1
    ID                          : 4
    Format                      : UTF-8
    Codec ID                    : S_TEXT/UTF8
    Codec ID/Info               : UTF-8 Plain Text
    Duration                    : 21 min 20 s
    Bit rate                    : 0 b/s
    Count of elements           : 4
    Stream size                 : 101 Bytes (0%)
    Title                       : Forzados-SRT [CinemaniaHDD]
    Language                    : Spanish
    Default                     : Yes
    Forced                      : Yes

    Text #2
    ID                          : 5
    Format                      : UTF-8
    Codec ID                    : S_TEXT/UTF8
    Codec ID/Info               : UTF-8 Plain Text
    Duration                    : 50 min 55 s
    Bit rate                    : 52 b/s
    Count of elements           : 655
    Stream size                 : 19.7 KiB (0%)
    Title                       : Español-SRT [CinemaniaHDD]
    Language                    : Spanish
    Default                     : No
    Forced                      : No

    Text #3
    ID                          : 6
    Format                      : UTF-8
    Codec ID                    : S_TEXT/UTF8
    Codec ID/Info               : UTF-8 Plain Text
    Duration                    : 49 min 35 s
    Bit rate                    : 57 b/s
    Count of elements           : 688
    Stream size                 : 20.9 KiB (0%)
    Title                       : Ingles-SRT [CinemaniaHDD]
    Language                    : English
    Default                     : No
    Forced                      : No

  • Peso: 2.4 GiB -- 17.9 GiB -- 8 Chapters

Sinopsis

Descargar Renegade Nell (2024) Temporada 1 WEB-DL 1080p Latino. Cuando la incriminan por asesinato, Nell Jackson se ve obligada a llevar una vida de robo en carreteras, junto con sus dos hermanas huérfanas, Roxanne y George. Con la ayuda de un pequeño y valiente espíritu llamado Billy Blind, Nell se da cuenta de que el destino la ha puesto en el lado equivocado de la ley por una razón, una razón mucho mayor de la que jamás hubiera imaginado, una razón que llega hasta la reina Ana y más allá, a la lucha por el poder que se libra en los campos de batalla de Europa.

Español Latino – Ingles [EAC3 5.1 D+] 

Ficha técnica

Video trailer de la película

Enlaces de descarga

Rip de Bluray

Descargar Renegade Nell (2024) Temporada 1 WEB-DL 1080p Latino




Aportes de DPeliculasHDmega la pass es:dpeliculashdmega.org Aportes de CinemaniaHD la pass es:cinemaniahdd.com Aportes recientes:cinemaniahdd.net

Películas relacionadas

descargar Renegade Nell (2024) Temporada 1 WEB-DL 1080p Latino WEBDL 1080p gratis, Renegade Nell (2024) Temporada 1 WEB-DL 1080p Latino WEBDL mega 1 link, Renegade Nell (2024) Temporada 1 WEB-DL 1080p Latino WEBDL serie completa, descargar Renegade Nell (2024) Temporada 1 WEB-DL 1080p Latino WEBDL gratis en mega.

Renegade Nell (2024) Temporada 1 WEB-DL 1080p Latino pelicula full hd, Renegade Nell (2024) Temporada 1 WEB-DL 1080p Latino mega latino, Renegade Nell (2024) Temporada 1 WEB-DL 1080p Latino 4k latino, Renegade Nell (2024) Temporada 1 WEB-DL 1080p Latino pelicula completa, Renegade Nell (2024) Temporada 1 WEB-DL 1080p Latino descargar gratis, descargar Renegade Nell (2024) Temporada 1 WEB-DL 1080p Latino pelicula latino, Renegade Nell (2024) Temporada 1 WEB-DL 1080p Latino 1 link mega, Renegade Nell (2024) Temporada 1 WEB-DL 1080p Latino 1 link google drive, Renegade Nell (2024) Temporada 1 WEB-DL 1080p Latino hd 1080p latino.
Comentarios 0