×

¿Problemas para descargar con Mozilla, EDGE? Deshabilita la opción "Abrir vinculos en una pestaña nueva" tal como lo muestra ésta imagen.

Reminiscencia (2021) REMUX 1080p Latino

163 vistas

Información de Reminiscencia (2021) REMUX 1080p Latino

Datos de la película

  • Calidad: Full 1080p
  • Audio: Se especifica abajo de la Sinopsis
  • Subtitulos: Español Latino PGS - Ingles PGS
  • Resolución: 1920x1080p
  • Formato: MKV
  • Codec: H.264
  • Encoder: Melkor
  • Mediainfo: Clic para Mostrar Datos Ver
  • Reminiscencia (2021) REMUX 1080p Latino.mkv
    Format                      : Matroska
    Format version              : Version 4
    File size                   : 30.6 GiB
    Duration                    : 1 h 55 min
    Overall bit rate mode       : Variable
    Overall bit rate            : 37.8 Mb/s
    Movie name                  : Reminiscence (2021) CinemaniaHDD.Net
    Encoded date                : UTC 2021-11-05 08:02:11
    Writing application         : mkvmerge v56.1.0 ('My Friend') 64-bit
    Writing library             : libebml v1.4.2 + libmatroska v1.6.4
    Attachments                 : CINEMANIAHD.png

    Video
    ID                          : 1
    Format                      : AVC
    Format/Info                 : Advanced Video Codec
    Format profile              : High@L4.1
    Format settings             : CABAC / 4 Ref Frames
    Format settings, CABAC      : Yes
    Format settings, Reference  : 4 frames
    Codec ID                    : V_MPEG4/ISO/AVC
    Duration                    : 1 h 55 min
    Bit rate mode               : Variable
    Bit rate                    : 33.8 Mb/s
    Maximum bit rate            : 36.0 Mb/s
    Width                       : 1 920 pixels
    Height                      : 1 080 pixels
    Display aspect ratio        : 16:9
    Frame rate mode             : Constant
    Frame rate                  : 23.976 (24000/1001) FPS
    Color space                 : YUV
    Chroma subsampling          : 4:2:0
    Bit depth                   : 8 bits
    Scan type                   : Progressive
    Bits/(Pixel*Frame)          : 0.679
    Stream size                 : 27.4 GiB (89%)
    Title                       : REMUX HD1080p [CinemaniaHDD]
    Default                     : Yes
    Forced                      : Yes

    Audio #1
    ID                          : 2
    Format                      : AC-3
    Format/Info                 : Audio Coding 3
    Commercial name             : Dolby Digital
    Codec ID                    : A_AC3
    Duration                    : 1 h 55 min
    Bit rate mode               : Constant
    Bit rate                    : 448 kb/s
    Channel(s)                  : 6 channels
    Channel layout              : L R C LFE Ls Rs
    Sampling rate               : 48.0 kHz
    Frame rate                  : 31.250 FPS (1536 SPF)
    Compression mode            : Lossy
    Stream size                 : 372 MiB (1%)
    Title                       : Español Latino [CinemaniaHDD]
    Language                    : Spanish
    Service kind                : Complete Main
    Default                     : Yes
    Forced                      : Yes

    Audio #2
    ID                          : 3
    Format                      : MLP FBA 16-ch
    Format/Info                 : Meridian Lossless Packing FBA with 16-channel presentation
    Commercial name             : Dolby TrueHD with Dolby Atmos
    Codec ID                    : A_TRUEHD
    Duration                    : 1 h 55 min
    Bit rate mode               : Variable
    Bit rate                    : 3 062 kb/s
    Maximum bit rate            : 4 716 kb/s
    Channel(s)                  : 8 channels
    Channel layout              : L R C LFE Ls Rs Lb Rb
    Sampling rate               : 48.0 kHz
    Frame rate                  : 1 200.000 FPS (40 SPF)
    Compression mode            : Lossless
    Stream size                 : 2.48 GiB (8%)
    Title                       : Ingles [CinemaniaHDD]
    Language                    : English
    Default                     : No
    Forced                      : No
    Number of dynamic objects   : 11
    Bed channel count           : 1 channel
    Bed channel configuration   : LFE

    Audio #3
    ID                          : 4
    Format                      : AC-3
    Format/Info                 : Audio Coding 3
    Commercial name             : Dolby Digital
    Format settings             : Dolby Surround EX
    Codec ID                    : A_AC3
    Duration                    : 1 h 55 min
    Bit rate mode               : Constant
    Bit rate                    : 448 kb/s
    Channel(s)                  : 6 channels
    Channel layout              : L R C LFE Ls Rs
    Sampling rate               : 48.0 kHz
    Frame rate                  : 31.250 FPS (1536 SPF)
    Compression mode            : Lossy
    Stream size                 : 372 MiB (1%)
    Title                       : Ingles AC3 [CinemaniaHDD]
    Language                    : English
    Service kind                : Complete Main
    Default                     : No
    Forced                      : No

    Text #1
    ID                          : 5
    Format                      : PGS
    Muxing mode                 : zlib
    Codec ID                    : S_HDMV/PGS
    Codec ID/Info               : Picture based subtitle format used on BDs/HD-DVDs
    Duration                    : 53 min 33 s
    Bit rate                    : 279 b/s
    Count of elements           : 10
    Stream size                 : 110 KiB (0%)
    Title                       : Forzados-PGS [CinemaniaHDD]
    Language                    : Spanish
    Default                     : No
    Forced                      : No

    Text #2
    ID                          : 6
    Format                      : PGS
    Muxing mode                 : zlib
    Codec ID                    : S_HDMV/PGS
    Codec ID/Info               : Picture based subtitle format used on BDs/HD-DVDs
    Duration                    : 1 h 53 min
    Bit rate                    : 33.5 kb/s
    Count of elements           : 2940
    Stream size                 : 27.3 MiB (0%)
    Title                       : Español-PGS [CinemaniaHDD]
    Language                    : Spanish
    Default                     : No
    Forced                      : No

    Text #3
    ID                          : 7
    Format                      : PGS
    Muxing mode                 : zlib
    Codec ID                    : S_HDMV/PGS
    Codec ID/Info               : Picture based subtitle format used on BDs/HD-DVDs
    Duration                    : 1 h 52 min
    Bit rate                    : 40.4 kb/s
    Count of elements           : 3532
    Stream size                 : 32.4 MiB (0%)
    Title                       : Ingles-PGS [CinemaniaHDD]
    Language                    : English
    Default                     : No
    Forced                      : No

    Text #4
    ID                          : 8
    Format                      : UTF-8
    Codec ID                    : S_TEXT/UTF8
    Codec ID/Info               : UTF-8 Plain Text
    Duration                    : 1 h 54 min
    Bit rate                    : 0 b/s
    Count of elements           : 25
    Stream size                 : 504 Bytes (0%)
    Title                       : Forzados-SRT [CinemaniaHDD]
    Language                    : Spanish
    Default                     : Yes
    Forced                      : Yes

    Text #5
    ID                          : 9
    Format                      : UTF-8
    Codec ID                    : S_TEXT/UTF8
    Codec ID/Info               : UTF-8 Plain Text
    Duration                    : 1 h 54 min
    Bit rate                    : 51 b/s
    Count of elements           : 1506
    Stream size                 : 43.4 KiB (0%)
    Title                       : Español-SRT [CinemaniaHDD]
    Language                    : Spanish
    Default                     : No
    Forced                      : No

    Menu
    00:00:00.000                : Chapter 01
    00:09:31.446                : Chapter 02
    00:16:54.055                : Chapter 03
    00:25:04.712                : Chapter 04
    00:34:40.704                : Chapter 05
    00:42:31.299                : Chapter 06
    00:51:19.201                : Chapter 07
    01:00:36.800                : Chapter 08
    01:09:12.815                : Chapter 09
    01:18:36.837                : Chapter 10
    01:28:21.713                : Chapter 11
    01:38:00.041                : Chapter 12
    01:41:52.106                : Chapter 13
    01:49:30.355                : Chapter 14

  • Peso: 30.6 GiB

Sinopsis

Descargar Reminiscencia (2021) REMUX 1080p Latino. Nick Bannister, un investigador privado que se interna en el oscuro y seductor mundo del pasado, ayuda a sus clientes a recuperar recuerdos perdidos. Vive a orillas de la costa de Miami que se encuentra sumergida en gran parte bajo el mar. Un día, su vida cambia cuando aparece Mae, una nueva clienta. Aunque Mae solo acude a su consulta para encontrar un objeto perdido, se convertirá en una peligrosa obsesión. Mientras Bannister intenta encontrar el motivo de la desaparición de Mae, descubre una violenta conspiración y, al final, deberá responder a la gran pregunta: ¿Hasta dónde llegarías para aferrarte a tus seres queridos?

Español Latino AC3 5.1 – Ingles TrueHD 7.1 & AC3 5.1

Ficha técnica

Video trailer de la película

Enlaces de descarga

Rip de Bluray

Descargar Reminiscencia (2021) REMUX 1080p Latino




Aportes de DPeliculasHDmega la pass es:dpeliculashdmega.org Aportes de CinemaniaHD la pass es:cinemaniahdd.com

Películas relacionadas

descargar Reminiscencia (2021) REMUX 1080p Latino Full 1080p 1080p gratis, Reminiscencia (2021) REMUX 1080p Latino Full 1080p mega 1 link, Reminiscencia (2021) REMUX 1080p Latino Full 1080p pelicula completa, descargar Reminiscencia (2021) REMUX 1080p Latino Full 1080p gratis en mega.

Reminiscencia (2021) REMUX 1080p Latino pelicula full hd, Reminiscencia (2021) REMUX 1080p Latino mega latino, Reminiscencia (2021) REMUX 1080p Latino 4k latino, Reminiscencia (2021) REMUX 1080p Latino pelicula completa, Reminiscencia (2021) REMUX 1080p Latino descargar gratis, descargar Reminiscencia (2021) REMUX 1080p Latino pelicula latino, Reminiscencia (2021) REMUX 1080p Latino 1 link mega, Reminiscencia (2021) REMUX 1080p Latino 1 link google drive, Reminiscencia (2021) REMUX 1080p Latino hd 1080p latino.
Comentarios 0