×

¿Problemas para descargar con Mozilla, EDGE? Deshabilita la opción "Abrir vinculos en una pestaña nueva" tal como lo muestra ésta imagen.

Reminiscence (2021) REMUX 4K HDR Latino – CMHDD

143 vistas

Información de Reminiscence (2021) REMUX 4K HDR Latino – CMHDD

Datos de la película

  • Calidad: 4K HDR
  • Audio: Se especifica abajo de la Sinopsis
  • Subtitulos: Español Latino PGS
  • Resolución: 3840x2160p
  • Formato: MKV
  • Codec: H.264
  • Encoder: Dracarys
  • Mediainfo: Clic para Mostrar Datos Ver
  • Format                      : Matroska
    Format version              : Version 4
    File size                   : 45.6 GiB
    Duration                    : 1 h 55 min
    Overall bit rate mode       : Variable
    Overall bit rate            : 56.3 Mb/s
    Movie name                  : Reminiscence (2021) REMUX 4K HDR Latino - CMHDD
    Encoded date                : UTC 2021-11-16 01:49:03
    Writing application         : mkvmerge v17.0.0 ('Be Ur Friend') 64-bit
    Writing library             : libebml v1.3.5 + libmatroska v1.4.8

    Video
    ID                          : 1
    Format                      : HEVC
    Format/Info                 : High Efficiency Video Coding
    Format profile              : Main 10@L5.1@High
    HDR format                  : SMPTE ST 2086, HDR10 compatible
    Codec ID                    : V_MPEGH/ISO/HEVC
    Duration                    : 1 h 55 min
    Bit rate                    : 52.3 Mb/s
    Width                       : 3 840 pixels
    Height                      : 2 160 pixels
    Display aspect ratio        : 16:9
    Frame rate mode             : Constant
    Frame rate                  : 23.976 (24000/1001) FPS
    Color space                 : YUV
    Chroma subsampling          : 4:2:0 (Type 2)
    Bit depth                   : 10 bits
    Bits/(Pixel*Frame)          : 0.263
    Stream size                 : 42.4 GiB (93%)
    Default                     : Yes
    Forced                      : No
    Color range                 : Limited
    Color primaries             : BT.2020
    Transfer characteristics    : PQ
    Matrix coefficients         : BT.2020 non-constant
    Mastering display color pri : Display P3
    Mastering display luminance : min: 0.0050 cd/m2, max: 4000 cd/m2
    Maximum Content Light Level : 1216 cd/m2
    Maximum Frame-Average Light : 98 cd/m2

    Audio #1
    ID                          : 2
    Format                      : MLP FBA 16-ch
    Format/Info                 : Meridian Lossless Packing FBA with 16-channel presentation
    Commercial name             : Dolby TrueHD with Dolby Atmos
    Codec ID                    : A_TRUEHD
    Duration                    : 1 h 55 min
    Bit rate mode               : Variable
    Bit rate                    : 3 062 kb/s
    Maximum bit rate            : 4 716 kb/s
    Channel(s)                  : 8 channels
    Channel layout              : L R C LFE Ls Rs Lb Rb
    Sampling rate               : 48.0 kHz
    Frame rate                  : 1 200.000 FPS (40 SPF)
    Compression mode            : Lossless
    Stream size                 : 2.48 GiB (5%)
    Language                    : English
    Default                     : No
    Forced                      : No
    Number of dynamic objects   : 11
    Bed channel count           : 1 channel
    Bed channel configuration   : LFE

    Audio #2
    ID                          : 3
    Format                      : AC-3
    Format/Info                 : Audio Coding 3
    Commercial name             : Dolby Digital
    Format settings             : Dolby Surround EX
    Codec ID                    : A_AC3
    Duration                    : 1 h 55 min
    Bit rate mode               : Constant
    Bit rate                    : 448 kb/s
    Channel(s)                  : 6 channels
    Channel layout              : L R C LFE Ls Rs
    Sampling rate               : 48.0 kHz
    Frame rate                  : 31.250 FPS (1536 SPF)
    Compression mode            : Lossy
    Stream size                 : 372 MiB (1%)
    Language                    : English
    Service kind                : Complete Main
    Default                     : No
    Forced                      : No

    Audio #3
    ID                          : 4
    Format                      : AC-3
    Format/Info                 : Audio Coding 3
    Commercial name             : Dolby Digital
    Codec ID                    : A_AC3
    Duration                    : 1 h 55 min
    Bit rate mode               : Constant
    Bit rate                    : 448 kb/s
    Channel(s)                  : 6 channels
    Channel layout              : L R C LFE Ls Rs
    Sampling rate               : 48.0 kHz
    Frame rate                  : 31.250 FPS (1536 SPF)
    Compression mode            : Lossy
    Stream size                 : 372 MiB (1%)
    Language                    : Spanish
    Service kind                : Complete Main
    Default                     : Yes
    Forced                      : No

    Text #1
    ID                          : 5
    Format                      : PGS
    Muxing mode                 : zlib
    Codec ID                    : S_HDMV/PGS
    Codec ID/Info               : Picture based subtitle format used on BDs/HD-DVDs
    Duration                    : 1 h 53 min
    Bit rate                    : 32.9 kb/s
    Count of elements           : 2940
    Stream size                 : 26.8 MiB (0%)
    Language                    : Spanish
    Default                     : No
    Forced                      : No

    Text #2
    ID                          : 6
    Format                      : PGS
    Muxing mode                 : zlib
    Codec ID                    : S_HDMV/PGS
    Codec ID/Info               : Picture based subtitle format used on BDs/HD-DVDs
    Duration                    : 53 min 33 s
    Bit rate                    : 269 b/s
    Count of elements           : 10
    Stream size                 : 106 KiB (0%)
    Language                    : Spanish
    Default                     : No
    Forced                      : No

    Menu
    00:00:00.000                : en:Chapter 1
    00:09:31.445                : en:Chapter 2
    00:16:54.054                : en:Chapter 3
    00:25:04.711                : en:Chapter 4
    00:34:40.703                : en:Chapter 5
    00:42:31.298                : en:Chapter 6
    00:51:19.201                : en:Chapter 7
    01:00:36.799                : en:Chapter 8
    01:09:12.815                : en:Chapter 9
    01:18:36.837                : en:Chapter 10
    01:28:21.713                : en:Chapter 11
    01:38:00.040                : en:Chapter 12
    01:41:52.106                : en:Chapter 13
    01:49:30.355                : en:Chapter 14

  • Peso: 45.6 GiB

Sinopsis

Nick Bannister, un investigador privado que se interna en el oscuro y seductor mundo del pasado, ayuda a sus clientes a recuperar recuerdos perdidos. Vive a orillas de la costa de Miami que se encuentra sumergida en gran parte bajo el mar. Un día, su vida cambia cuando aparece Mae, una nueva clienta. Aunque Mae solo acude a su consulta para encontrar un objeto perdido, se convertirá en una peligrosa obsesión. Mientras Bannister intenta encontrar el motivo de la desaparición de Mae, descubre una violenta conspiración y, al final, deberá responder a la gran pregunta: ¿Hasta dónde llegarías para aferrarte a tus seres queridos?

 

Latino: Ac3 5.1    Inglés: TrueHD 7.1

Ficha técnica

Video trailer de la película

Enlaces de descarga

Rip de Bluray

Descargar Reminiscence (2021) REMUX 4K HDR Latino – CMHDD


Aportes de DPeliculasHDmega la pass es:dpeliculashdmega.org Aportes de CinemaniaHD la pass es:cinemaniahdd.com
Guardado en : Ciencia ficción

Películas relacionadas

  • M3GAN (2023) AMZN WEB-DL 4K UHD HDR Latino

    M3GAN (2023) AMZN WEB-DL 4K UHD HDR Latino

    2022
    M3GAN (2023) AMZN WEB-DL 4K UHD HDR Latino

    1h 42m 2022

    Descargar M3GAN (2023) AMZN WEB-DL 4K UHD HDR Latino. Cuando Gemma se convierte en la cuidadora de su...

    Director: Stephen W. Moore

    Género: 4K HDR

    Actores: Violet McGraw

  • M3GAN (2022) MA WEB-DL 1080p Latino

    M3GAN (2022) MA WEB-DL 1080p Latino

    2022
    M3GAN (2022) MA WEB-DL 1080p Latino

    1h 42m 2022

    Descargar M3GAN (2022) MA WEB-DL 1080p Latino. Cuando Gemma se convierte en la cuidadora de su sobrina...

    Director: Stephen W. Moore

    Género: Ciencia ficción

    Actores: Violet McGraw

  • Resident Evil (2002) REMUX 4K HDR Latino – CMHDD

    Resident Evil (2002) REMUX 4K HDR Latino – CMHDD

    2002
    Resident Evil (2002) REMUX 4K HDR Latino – CMHDD

    1h 36m 2002

    En un centro clandestino de investigación genética -con fines militares- de una poderosa multinacional...

    Director: Simon Emanuel

    Género: Acción

    Actores: Torsten Jerabek

descargar Reminiscence (2021) REMUX 4K HDR Latino – CMHDD 4K HDR 1080p gratis, Reminiscence (2021) REMUX 4K HDR Latino – CMHDD 4K HDR mega 1 link, Reminiscence (2021) REMUX 4K HDR Latino – CMHDD 4K HDR pelicula completa, descargar Reminiscence (2021) REMUX 4K HDR Latino – CMHDD 4K HDR gratis en mega.

Reminiscence (2021) REMUX 4K HDR Latino – CMHDD pelicula full hd, Reminiscence (2021) REMUX 4K HDR Latino – CMHDD mega latino, Reminiscence (2021) REMUX 4K HDR Latino – CMHDD 4k latino, Reminiscence (2021) REMUX 4K HDR Latino – CMHDD pelicula completa, Reminiscence (2021) REMUX 4K HDR Latino – CMHDD descargar gratis, descargar Reminiscence (2021) REMUX 4K HDR Latino – CMHDD pelicula latino, Reminiscence (2021) REMUX 4K HDR Latino – CMHDD 1 link mega, Reminiscence (2021) REMUX 4K HDR Latino – CMHDD 1 link google drive, Reminiscence (2021) REMUX 4K HDR Latino – CMHDD hd 1080p latino.