×

¿Problemas para descargar con Mozilla, EDGE? Deshabilita la opción "Abrir vinculos en una pestaña nueva" tal como lo muestra ésta imagen.

Remi: Una aventura extraordinaria (2018) REMUX 1080p Latino

350 vistas

Información de Remi: Una aventura extraordinaria (2018) REMUX 1080p Latino

Datos de la película

  • Calidad: Full 1080p
  • Audio: Se especifica abajo de la Sinopsis
  • Subtitulos: Español Latino SRT- FORZADOS SRT
  • Resolución: 1920x1080p
  • Formato: MKV
  • Codec: H.264
  • Encoder: CinefiloCool
  • Mediainfo: Clic para Mostrar Datos Ver
  • Rémi (2018) REMUX 1080p Latino.mkv
    Format                      : Matroska
    Format version              : Version 4
    File size                   : 25.6 GiB
    Duration                    : 1 h 48 min
    Overall bit rate mode       : Variable
    Overall bit rate            : 33.8 Mb/s
    Movie name                  : Remi sans famille (2018) CinemaniaHDD.Net
    Encoded date                : UTC 2020-05-06 15:39:54
    Writing application         : mkvmerge v42.0.0 ('Overtime') 64-bit
    Writing library             : libebml v1.3.10 + libmatroska v1.5.2
    Attachments                 : CINEMANIAHD.png

    Video
    ID                          : 1
    Format                      : AVC
    Format/Info                 : Advanced Video Codec
    Format profile              : High@L4.1
    Format settings             : CABAC / 4 Ref Frames
    Format settings, CABAC      : Yes
    Format settings, ReFrames   : 4 frames
    Codec ID                    : V_MPEG4/ISO/AVC
    Duration                    : 1 h 48 min
    Bit rate mode               : Variable
    Bit rate                    : 29.8 Mb/s
    Maximum bit rate            : 38.0 Mb/s
    Width                       : 1 920 pixels
    Height                      : 1 080 pixels
    Display aspect ratio        : 16:9
    Frame rate mode             : Constant
    Frame rate                  : 24.000 FPS
    Color space                 : YUV
    Chroma subsampling          : 4:2:0
    Bit depth                   : 8 bits
    Scan type                   : Progressive
    Bits/(Pixel*Frame)          : 0.600
    Stream size                 : 22.5 GiB (88%)
    Title                       : REMUX HD1080p [CinemaniaHDD]
    Default                     : Yes
    Forced                      : Yes

    Audio #1
    ID                          : 2
    Format                      : AC-3
    Format/Info                 : Audio Coding 3
    Commercial name             : Dolby Digital
    Codec ID                    : A_AC3
    Duration                    : 1 h 48 min
    Bit rate mode               : Constant
    Bit rate                    : 256 kb/s
    Channel(s)                  : 2 channels
    Channel layout              : L R
    Sampling rate               : 48.0 kHz
    Frame rate                  : 31.250 FPS (1536 SPF)
    Bit depth                   : 16 bits
    Compression mode            : Lossy
    Delay relative to video     : 30 ms
    Stream size                 : 198 MiB (1%)
    Title                       : Español Latino [CinemaniaHDD]
    Language                    : Spanish
    Service kind                : Complete Main
    Default                     : Yes
    Forced                      : No

    Audio #2
    ID                          : 3
    Format                      : DTS XLL
    Format/Info                 : Digital Theater Systems
    Commercial name             : DTS-HD Master Audio
    Codec ID                    : A_DTS
    Duration                    : 1 h 48 min
    Bit rate mode               : Variable
    Bit rate                    : 3 727 kb/s
    Channel(s)                  : 6 channels
    Channel layout              : C L R Ls Rs LFE
    Sampling rate               : 48.0 kHz
    Frame rate                  : 93.750 FPS (512 SPF)
    Bit depth                   : 24 bits
    Compression mode            : Lossless
    Stream size                 : 2.82 GiB (11%)
    Title                       : Frances [CinemaniaHDD]
    Language                    : French
    Default                     : No
    Forced                      : No

    Text #1
    ID                          : 4
    Format                      : UTF-8
    Codec ID                    : S_TEXT/UTF8
    Codec ID/Info               : UTF-8 Plain Text
    Duration                    : 1 h 11 min
    Bit rate                    : 0 b/s
    Count of elements           : 2
    Stream size                 : 33.0 Bytes (0%)
    Title                       : Forzados-SRT [CinemaniaHDD]
    Language                    : Spanish
    Default                     : Yes
    Forced                      : No

    Text #2
    ID                          : 5
    Format                      : UTF-8
    Codec ID                    : S_TEXT/UTF8
    Codec ID/Info               : UTF-8 Plain Text
    Duration                    : 1 h 39 min
    Bit rate                    : 46 b/s
    Count of elements           : 1027
    Stream size                 : 34.0 KiB (0%)
    Title                       : Español-SRT [CinemaniaHDD]
    Language                    : Spanish
    Default                     : No
    Forced                      : No

    Text #3
    ID                          : 6
    Format                      : UTF-8
    Codec ID                    : S_TEXT/UTF8
    Codec ID/Info               : UTF-8 Plain Text
    Duration                    : 1 h 38 min
    Bit rate                    : 44 b/s
    Count of elements           : 960
    Stream size                 : 32.3 KiB (0%)
    Title                       : Ingles-SRT [CinemaniaHDD]
    Language                    : English
    Default                     : No
    Forced                      : No

    Menu
    00:00:00.000                : :Chapter 1
    00:11:34.125                : :Chapter 2
    00:20:23.542                : :Chapter 3
    00:31:56.167                : :Chapter 4
    00:39:20.417                : :Chapter 5
    00:51:20.000                : :Chapter 6
    01:00:27.250                : :Chapter 7
    01:11:19.375                : :Chapter 8
    01:21:33.417                : :Chapter 9
    01:30:19.042                : :Chapter 10
    01:43:10.125                : :Chapter 11

  • Peso: 25.6 GiB

Sinopsis

Descargar Remi: Una aventura extraordinaria (2018) REMUX 1080p Latino. Las aventuras del joven Rémi, un huérfano recogido por la dulce Señora Barberin. Con 10 años, es arrebatado de su madre adoptiva y confiado a Vitalis, un misterioso músico itinerante. A su lado, aprenderá la dura vida del acróbata y cantará para ganarse su pan. Acompañado por el fiel perro Capi y el pequeño mono Joli-Coeur, su largo viaje por Francia, lleno de encuentros, amistades y ayuda mutua, lo llevará al secreto de sus orígenes.

Audio Español Latino AC3 2.0 WebDL – Frances DTS-HD 5.1 Bluray

Ficha técnica

Video trailer de la película

Enlaces de descarga

Rip de Bluray

Descargar Remi: Una aventura extraordinaria (2018) REMUX 1080p Latino




Aportes de DPeliculasHDmega la pass es:dpeliculashdmega.org Aportes de CinemaniaHD la pass es:cinemaniahdd.com
Guardado en : Aventura , Familia , Remux , Romance

Películas relacionadas

  • Mar de sangre (2022) WEB-DL 1080p Latino

    Mar de sangre (2022) WEB-DL 1080p Latino

    2022
    Mar de sangre (2022) WEB-DL 1080p Latino

    1h 27m 2022

    Descargar Mar de sangre (2022) WEB-DL 1080p Latino. Un grupo de amigos que disfrutan de un fin de semana...

    Director: James Nunn

    Género: Acción

    Actores: Thomas Michael Flynn

  • Noche sin paz (2022) REMUX 1080p Latino

    Noche sin paz (2022) REMUX 1080p Latino

    2022
    Noche sin paz (2022) REMUX 1080p Latino

    1h 41m 2022

    Descargar Noche sin paz (2022) REMUX 1080p Latino. Cuando un equipo de mercenarios irrumpe en Nochebuena...

    Director: Tyshana Hobson

    Género: Acción

    Actores: Yoon Cha-Lee

  • Groundhog Day (1993) REMUX 4K HDR Latino – CMHDD

    Groundhog Day (1993) REMUX 4K HDR Latino – CMHDD

    1993
    Groundhog Day (1993) REMUX 4K HDR Latino – CMHDD

    1h 41m 1993

    Phil, hombre del tiempo de una cadena de televisión, es enviado un año más a Punxstawnwey, a cubrir...

    Director: Sam Hoffman

    Género: Comedia

    Actores: Willie Garson

  • Si no despierto (2017) BD-USA REMUX 1080p Latino

    Si no despierto (2017) BD-USA REMUX 1080p Latino

    2017
    Si no despierto (2017) BD-USA REMUX 1080p Latino

    1h 39m 2017

    Descargar Si no despierto (2017) BD-USA REMUX 1080p Latino. En principio el 12 de febrero es sólo otro...

    Director: Ry Russo-Young

    Género: Drama

    Actores: Zoey Deutch

  • Si no despierto (2017) BD-EUR REMUX 1080p Latino

    Si no despierto (2017) BD-EUR REMUX 1080p Latino

    2017
    Si no despierto (2017) BD-EUR REMUX 1080p Latino

    1h 39m 2017

    Descargar Si no despierto (2017) BD-EUR REMUX 1080p Latino. En principio el 12 de febrero es sólo otro...

    Director: Ry Russo-Young

    Género: Drama

    Actores: Zoey Deutch

descargar Remi: Una aventura extraordinaria (2018) REMUX 1080p Latino Full 1080p 1080p gratis, Remi: Una aventura extraordinaria (2018) REMUX 1080p Latino Full 1080p mega 1 link, Remi: Una aventura extraordinaria (2018) REMUX 1080p Latino Full 1080p pelicula completa, descargar Remi: Una aventura extraordinaria (2018) REMUX 1080p Latino Full 1080p gratis en mega.

Remi: Una aventura extraordinaria (2018) REMUX 1080p Latino pelicula full hd, Remi: Una aventura extraordinaria (2018) REMUX 1080p Latino mega latino, Remi: Una aventura extraordinaria (2018) REMUX 1080p Latino 4k latino, Remi: Una aventura extraordinaria (2018) REMUX 1080p Latino pelicula completa, Remi: Una aventura extraordinaria (2018) REMUX 1080p Latino descargar gratis, descargar Remi: Una aventura extraordinaria (2018) REMUX 1080p Latino pelicula latino, Remi: Una aventura extraordinaria (2018) REMUX 1080p Latino 1 link mega, Remi: Una aventura extraordinaria (2018) REMUX 1080p Latino 1 link google drive, Remi: Una aventura extraordinaria (2018) REMUX 1080p Latino hd 1080p latino.
Comentarios 0