Rememory (2017) Full 1080p Subtitulada

2.532 vistas
1 estrella2 estrellas3 estrellas4 estrellas5 estrellas (1 votos, promedio: 4,00 de 5)
Cargando…

Información de Rememory (2017) Full 1080p Subtitulada

Datos de la película

  • Calidad: Full 1080p
  • Audio: Ingles DTS 5.1 BLURAY
  • Subtitulos: Español Latino PGS - Ingles PGS
  • Resolución: 1920X1080p
  • Formato: MKV
  • Codec: H.264
  • Encoder: Dracarys
  • Mediainfo: Clic para Mostrar Datos Ver
  • Format                                   : Matroska
    Format version                           : Version 4 / Version 2
    File size                                : 3.08 GiB
    Duration                                 : 1 h 51 min
    Overall bit rate                         : 3 939 kb/s
    Movie name                               : CinemaniaHDD.com
    Encoded date                             : UTC 2018-03-06 23:35:45 / UTC 2018-03-01T22:09:46Z
    Writing application                      : mkvmerge v15.0.0 ('Duel with the Devil') 64-bit
    Writing library                          : libebml v1.3.5 + libmatroska v1.4.5 / Lavf57.7.2

    Video
    ID                                       : 1
    Format                                   : AVC
    Format/Info                              : Advanced Video Codec
    Format profile                           : [email protected]
    Format settings                          : CABAC / 4 Ref Frames
    Format settings, CABAC                   : Yes
    Format settings, RefFrames               : 4 frames
    Codec ID                                 : V_MPEG4/ISO/AVC
    Duration                                 : 1 h 51 min
    Bit rate                                 : 2 352 kb/s
    Width                                    : 1 920 pixels
    Height                                   : 1 080 pixels
    Display aspect ratio                     : 16:9
    Frame rate mode                          : Constant
    Frame rate                               : 23.976 (24000/1001) FPS
    Color space                              : YUV
    Chroma subsampling                       : 4:2:0
    Bit depth                                : 8 bits
    Scan type                                : Progressive
    Bits/(Pixel*Frame)                       : 0.047
    Stream size                              : 1.84 GiB (60%)
    Title                                    : Rememory (2017) Full 1080p Subtitulada
    Writing library                          : x264 core 148 r2708 86b7198
    Encoding settings                        : cabac=1 / ref=4 / deblock=1:0:0 / analyse=0x3:0x133 / me=esa / subme=10 / psy=1 / psy_rd=1.00:0.00 / mixed_ref=1 / me_range=24 / chroma_me=1 / trellis=2 / 8x8dct=1 / cqm=0 / deadzone=21,11 / fast_pskip=1 / chroma_qp_offset=-2 / threads=34 / lookahead_threads=5 / sliced_threads=0 / nr=0 / decimate=1 / interlaced=0 / bluray_compat=0 / constrained_intra=0 / bframes=8 / b_pyramid=2 / b_adapt=2 / b_bias=0 / direct=3 / weightb=1 / open_gop=0 / weightp=2 / keyint=240 / keyint_min=24 / scenecut=40 / intra_refresh=0 / rc_lookahead=60 / rc=crf / mbtree=1 / crf=20.0 / qcomp=0.60 / qpmin=0 / qpmax=69 / qpstep=4 / vbv_maxrate=62500 / vbv_bufsize=78125 / crf_max=0.0 / nal_hrd=none / filler=0 / ip_ratio=1.40 / aq=1:1.00
    Language                                 : English
    Default                                  : Yes
    Forced                                   : No
    Color range                              : Limited
    Color primaries                          : BT.709
    Transfer characteristics                 : BT.709
    Matrix coefficients                      : BT.709
    Statistics Tags Issue                    : mkvmerge v15.0.0 ('Duel with the Devil') 64-bit 2018-03-06 23:35:45 / mkvmerge v15.0.0 ('Duel with the Devil') 64-bit 2018-03-06 23:35:45 / UTC 2018-03-01T22:09:46Z
    FromStats_BitRate                        : 2397319
    FromStats_Duration                       : 01:51:56.752000000
    FromStats_FrameCount                     : 161041
    FromStats_StreamSize                     : 2012775284

    Audio
    ID                                       : 2
    Format                                   : DTS
    Format/Info                              : Digital Theater Systems
    Mode                                     : 16
    Format settings, Endianness              : Big
    Codec ID                                 : A_DTS
    Duration                                 : 1 h 51 min
    Bit rate mode                            : Constant
    Bit rate                                 : 1 509 kb/s
    Channel(s)                               : 6 channels
    Channel positions                        : Front: L C R, Side: L R, LFE
    Sampling rate                            : 48.0 kHz
    Frame rate                               : 93.750 FPS (512 SPF)
    Bit depth                                : 24 bits
    Compression mode                         : Lossy
    Stream size                              : 1.18 GiB (38%)
    Language                                 : English
    Default                                  : Yes
    Forced                                   : No
    Statistics Tags Issue                    : mkvmerge v15.0.0 ('Duel with the Devil') 64-bit 2018-03-06 23:35:45 / mkvmerge v15.0.0 ('Duel with the Devil') 64-bit 2018-03-06 23:35:45 / UTC 2018-03-01T22:09:46Z
    FromStats_BitRate                        : 1508999
    FromStats_Duration                       : 01:51:55.755000000
    FromStats_FrameCount                     : 629602
    FromStats_StreamSize                     : 1266759224

    Text #1
    ID                                       : 3
    Format                                   : PGS
    Muxing mode                              : zlib
    Codec ID                                 : S_HDMV/PGS
    Codec ID/Info                            : Picture based subtitle format used on BDs/HD-DVDs
    Language                                 : English
    Default                                  : No
    Forced                                   : No
    Statistics Tags Issue                    : mkvmerge v15.0.0 ('Duel with the Devil') 64-bit 2018-03-06 23:35:45 / mkvmerge v15.0.0 ('Duel with the Devil') 64-bit 2018-03-06 23:35:45 / UTC 2018-03-01T22:09:46Z
    FromStats_BitRate                        : 34193
    FromStats_Duration                       : 01:51:19.631000000
    FromStats_FrameCount                     : 2658
    FromStats_StreamSize                     : 28549798

    Text #2
    ID                                       : 4
    Format                                   : PGS
    Muxing mode                              : zlib
    Codec ID                                 : S_HDMV/PGS
    Codec ID/Info                            : Picture based subtitle format used on BDs/HD-DVDs
    Language                                 : Spanish
    Default                                  : No
    Forced                                   : No
    Statistics Tags Issue                    : mkvmerge v15.0.0 ('Duel with the Devil') 64-bit 2018-03-06 23:35:45 / mkvmerge v15.0.0 ('Duel with the Devil') 64-bit 2018-03-06 23:35:45 / UTC 2018-03-01T22:09:46Z
    FromStats_BitRate                        : 29594
    FromStats_Duration                       : 01:47:39.745000000
    FromStats_FrameCount                     : 2184
    FromStats_StreamSize                     : 23896975

    Menu
    00:00:00.000                             : :Chapter 1
    00:07:04.925                             : :Chapter 2
    00:12:50.270                             : :Chapter 3
    00:18:17.555                             : :Chapter 4
    00:24:47.486                             : :Chapter 5
    00:32:51.052                             : :Chapter 6
    00:41:13.888                             : :Chapter 7
    00:46:14.772                             : :Chapter 8
    00:54:20.340                             : :Chapter 9
    01:01:30.604                             : :Chapter 10
    01:06:42.999                             : :Chapter 11
    01:14:57.702                             : :Chapter 12
    01:21:11.075                             : :Chapter 13
    01:28:28.428                             : :Chapter 14
    01:36:12.267                             : :Chapter 15
    01:42:20.676                             : :Chapter 16

  • Peso: 3.08 GiB

Sinopsis

La viuda de un profesor sabio tropieza con uno de sus inventos que es capaz de grabar y reproducir la memoria de una persona.

 

 

 

Resubida.

Ficha técnica

Video trailer de la película

Enlaces de descarga

Rip de Bluray

Descargar Rememory (2017) Full 1080p Subtitulada




Aportes de DPeliculasHDmega la pass es:dpeliculashdmega.org Aportes de CinemaniaHD la pass es:cinemaniahdd.com

Películas relacionadas

  • Miss Bala (2019) 1080p Latino

    2019
    Miss Bala (2019) 1080p Latino

    0.0 1h 44m 2019

    La ganadora de un concurso de belleza se ve obligada a trabajar para un jefe del crimen después de ser...

    Director: Catherine Hardwicke

    Género: Acción

    Actores: Roberto Sosa

  • Hanna (2019) Temporada 1 AMZN WEB-DL 1080p Latino

    2019
    Hanna (2019) Temporada 1 AMZN WEB-DL 1080p Latino

    0.0 0h 50m 2019

    Este thriller y el drama de la mayoría de edad sigue el viaje de una joven extraordinaria mientras evade...

    Director: David Farr

    Género: Action & Adventure

    Actores: Rhianne Barreto

  • Super Campones (2018) Temporada 1 NF 1080p Latino

    2018
    Super Campones (2018) Temporada 1 NF 1080p Latino

    0.0 0h 22m 2018

    La historia apasionada de un estudiante de escuela primaria cuyos pensamientos y sueños giran casi enteramente...

    Director: Toshiyuki Kato

    Género: Animación

    Actores: Yuuko Sanpei

Comentarios 4
  • Tio Higuera - 19 febrero, 2018

    Al minuto 7:30 aparece un aviso de protección durante 1 minuto aprox. se pierde un tramo de pelicula.

  • SAAVEDRA - 26 enero, 2018

    Muchas Gracias, La Película Es Muy Buena Como Todos Sus Aportes 🙂

  • Cr. Jose - 25 enero, 2018

    Buenas tardes subirán esta película en latino?
    Gracias por todos sus aportes

    • Dracarys - 25 enero, 2018

      Aun no se sabe nada si saldra en latino!