×

¿Problemas para descargar con Mozilla, EDGE? Deshabilita la opción "Abrir vinculos en una pestaña nueva" tal como lo muestra ésta imagen.

Reik Live On Max (2021) HMAX WEB-DL 1080p Latino

117 vistas

Información de Reik Live On Max (2021) HMAX WEB-DL 1080p Latino

Datos de la película

  • Calidad:
  • Audio: Español Latino AC3 2.0
  • Subtitulos: No
  • Resolución: 1920x1080
  • Formato: MKV
  • Codec: H.264
  • Encoder: cinemaniahdd
  • Mediainfo: Clic para Mostrar Datos Ver
  • Reik Live On Max (2021) HMAX WEB-DL 1080p Latino [CNMNHDD].mkv
    Format                      : Matroska
    Format version              : Version 4
    File size                   : 4.25 GiB
    Duration                    : 1 h 15 min
    Overall bit rate            : 8 031 kb/s
    Movie name                  : Reik Live On Max (2021) - CinemaniaHDD.Net
    Encoded date                : UTC 2021-11-29 02:26:43
    Writing application         : mkvmerge v46.0.0 ('No Deeper Escape') 64-bit
    Writing library             : libebml v1.3.10 + libmatroska v1.5.2

    Video
    ID                          : 1
    Format                      : AVC
    Format/Info                 : Advanced Video Codec
    Format profile              : High@L4
    Format settings             : CABAC / 4 Ref Frames
    Format settings, CABAC      : Yes
    Format settings, Reference  : 4 frames
    Codec ID                    : V_MPEG4/ISO/AVC
    Duration                    : 1 h 15 min
    Bit rate mode               : Constant
    Bit rate                    : 8 000 kb/s
    Width                       : 1 920 pixels
    Height                      : 1 080 pixels
    Display aspect ratio        : 16:9
    Frame rate mode             : Constant
    Frame rate                  : 29.970 (30000/1001) FPS
    Color space                 : YUV
    Chroma subsampling          : 4:2:0
    Bit depth                   : 8 bits
    Scan type                   : Progressive
    Bits/(Pixel*Frame)          : 0.129
    Stream size                 : 4.19 GiB (98%)
    Title                       : CinemaniaHDD
    Language                    : Spanish
    Default                     : Yes
    Forced                      : No

    Audio
    ID                          : 2
    Format                      : AAC LC
    Format/Info                 : Advanced Audio Codec Low Complexity
    Codec ID                    : A_AAC-2
    Duration                    : 1 h 15 min
    Bit rate                    : 125 kb/s
    Channel(s)                  : 2 channels
    Channel layout              : L R
    Sampling rate               : 48.0 kHz
    Frame rate                  : 46.875 FPS (1024 SPF)
    Compression mode            : Lossy
    Stream size                 : 67.9 MiB (2%)
    Title                       : Español latino [CinemaniaHDD]
    Language                    : Spanish
    Default                     : Yes
    Forced                      : Yes

     

  • Peso: 4.25 GiB

Sinopsis

No podíamos dejar que terminara noviembre sin ti… y sin Reik. El grupo mexicano de balada, reggaetón y pop latino llega a los escenarios de Live on Max para demostrar que el romance siempre está presente sin importar el género musical…

Ficha técnica

  • Titulo original: Reik Live on Max
  • Fecha de lanzamiento: 27-11-2021
  • Género: HBOMAX, Música

Video trailer de la película

Enlaces de descarga

Rip de Bluray

Descargar Reik Live On Max (2021) HMAX WEB-DL 1080p Latino




Aportes de DPeliculasHDmega la pass es:dpeliculashdmega.org Aportes de CinemaniaHD la pass es:cinemaniahdd.com
Guardado en : HBOMAX , Música

Películas relacionadas

  • Lilo, Lilo, cocodrilo (2022) WEB-DL 1080p Latino

    Lilo, Lilo, cocodrilo (2022) WEB-DL 1080p Latino

    2022
    Lilo, Lilo, cocodrilo (2022) WEB-DL 1080p Latino

    1h 46m 2022

    Descargar Lilo, Lilo, cocodrilo (2022) WEB-DL 1080p Latino. Cuando la familia Primm se muda a Nueva York,...

    Director: Will Speck

    Género: Comedia

    Actores: Zeb Slone

  • Stargirl (2022) Temporada 3 WEB-DL 1080p Latino

    Stargirl (2022) Temporada 3 WEB-DL 1080p Latino

    2020
    Stargirl (2022) Temporada 3 WEB-DL 1080p Latino

    0h 43m 2020

    Courtney Withmore es una estudiante de instituto que ayuda a un grupo de jóvenes héroes a acabar con...

    Director: Geoff Johns

    Género: Action & Adventure

    Actores: Yvette Monreal

  • Rick and Morty (2022) Temporada 6 WEB-DL 1080p Latino

    Rick and Morty (2022) Temporada 6 WEB-DL 1080p Latino

    2013
    Rick and Morty (2022) Temporada 6 WEB-DL 1080p Latino

    0h 22m 2013

    Comedia animada que narra las aventuras de un científico loco Rick Sánchez, que regresa después de...

    Director: Justin Roiland

    Género: Action & Adventure

    Actores: Spencer Grammer

descargar Reik Live On Max (2021) HMAX WEB-DL 1080p Latino 1080p gratis, Reik Live On Max (2021) HMAX WEB-DL 1080p Latino mega 1 link, Reik Live On Max (2021) HMAX WEB-DL 1080p Latino pelicula completa, descargar Reik Live On Max (2021) HMAX WEB-DL 1080p Latino gratis en mega.

Reik Live On Max (2021) HMAX WEB-DL 1080p Latino pelicula full hd, Reik Live On Max (2021) HMAX WEB-DL 1080p Latino mega latino, Reik Live On Max (2021) HMAX WEB-DL 1080p Latino 4k latino, Reik Live On Max (2021) HMAX WEB-DL 1080p Latino pelicula completa, Reik Live On Max (2021) HMAX WEB-DL 1080p Latino descargar gratis, descargar Reik Live On Max (2021) HMAX WEB-DL 1080p Latino pelicula latino, Reik Live On Max (2021) HMAX WEB-DL 1080p Latino 1 link mega, Reik Live On Max (2021) HMAX WEB-DL 1080p Latino 1 link google drive, Reik Live On Max (2021) HMAX WEB-DL 1080p Latino hd 1080p latino.
Comentarios 0