×

¿Problemas para descargar con Mozilla, EDGE? Deshabilita la opción "Abrir vinculos en una pestaña nueva" tal como lo muestra ésta imagen.

El reinado del fuego (2002) REMUX 1080p Latino

274 vistas

Información de El reinado del fuego (2002) REMUX 1080p Latino

Datos de la película

  • Calidad: Full 1080p
  • Audio: Español Latino AC3 5.1 BLURAY - Ingles DTS 5.1 BLURAY
  • Subtitulos: Español Latino SRT - Ingles SRT
  • Resolución: 1920x1080p
  • Formato: MKV
  • Codec: H.264
  • Encoder: CinefiloCool
  • Mediainfo: Clic para Mostrar Datos Ver
  • El Reinado Del Fuego (2002) REMUX 1080p Latino-CMHDD.mkv
    Format                      : Matroska
    Format version              : Version 4
    File size                   : 28.5 GiB
    Duration                    : 1 h 41 min
    Overall bit rate mode       : Variable
    Overall bit rate            : 40.0 Mb/s
    Movie name                  : Reign of Fire (2002) CinemaniaHDD.Net
    Encoded date                : UTC 2021-10-22 03:19:19
    Writing application         : mkvmerge v56.1.0 ('My Friend') 64-bit
    Writing library             : libebml v1.4.2 + libmatroska v1.6.4
    Attachments                 : CINEMANIAHD.png

    Video
    ID                          : 1
    Format                      : AVC
    Format/Info                 : Advanced Video Codec
    Format profile              : High@L4.1
    Format settings             : CABAC / 4 Ref Frames
    Format settings, CABAC      : Yes
    Format settings, Reference  : 4 frames
    Codec ID                    : V_MPEG4/ISO/AVC
    Duration                    : 1 h 41 min
    Bit rate mode               : Variable
    Bit rate                    : 36.9 Mb/s
    Maximum bit rate            : 38.0 Mb/s
    Width                       : 1 920 pixels
    Height                      : 1 080 pixels
    Display aspect ratio        : 16:9
    Frame rate mode             : Constant
    Frame rate                  : 23.976 (24000/1001) FPS
    Color space                 : YUV
    Chroma subsampling          : 4:2:0
    Bit depth                   : 8 bits
    Scan type                   : Progressive
    Bits/(Pixel*Frame)          : 0.743
    Stream size                 : 26.3 GiB (92%)
    Title                       : REMUX HD1080p [CinemaniaHDD]
    Default                     : Yes
    Forced                      : Yes
    Color range                 : Limited
    Color primaries             : BT.709
    Transfer characteristics    : BT.709
    Matrix coefficients         : BT.709

    Audio #1
    ID                          : 2
    Format                      : AC-3
    Format/Info                 : Audio Coding 3
    Commercial name             : Dolby Digital
    Codec ID                    : A_AC3
    Duration                    : 1 h 41 min
    Bit rate mode               : Constant
    Bit rate                    : 640 kb/s
    Channel(s)                  : 6 channels
    Channel layout              : L R C LFE Ls Rs
    Sampling rate               : 48.0 kHz
    Frame rate                  : 31.250 FPS (1536 SPF)
    Compression mode            : Lossy
    Delay relative to video     : 30 ms
    Stream size                 : 467 MiB (2%)
    Title                       : Español Latino [CinemaniaHDD]
    Language                    : Spanish
    Service kind                : Complete Main
    Default                     : Yes
    Forced                      : Yes

    Audio #2
    ID                          : 3
    Format                      : MLP FBA
    Format/Info                 : Meridian Lossless Packing FBA
    Commercial name             : Dolby TrueHD
    Codec ID                    : A_TRUEHD
    Duration                    : 1 h 41 min
    Bit rate mode               : Variable
    Bit rate                    : 1 754 kb/s
    Maximum bit rate            : 3 222 kb/s
    Channel(s)                  : 6 channels
    Channel layout              : L R C LFE Ls Rs
    Sampling rate               : 48.0 kHz
    Frame rate                  : 1 200.000 FPS (40 SPF)
    Compression mode            : Lossless
    Stream size                 : 1.25 GiB (4%)
    Title                       : Ingles-THD [CinemaniaHDD]
    Language                    : English
    Default                     : No
    Forced                      : No

    Audio #3
    ID                          : 4
    Format                      : AC-3
    Format/Info                 : Audio Coding 3
    Commercial name             : Dolby Digital
    Codec ID                    : A_AC3
    Duration                    : 1 h 41 min
    Bit rate mode               : Constant
    Bit rate                    : 640 kb/s
    Channel(s)                  : 6 channels
    Channel layout              : L R C LFE Ls Rs
    Sampling rate               : 48.0 kHz
    Frame rate                  : 31.250 FPS (1536 SPF)
    Compression mode            : Lossy
    Stream size                 : 467 MiB (2%)
    Title                       : Ingles-AC3 [CinemaniaHDD]
    Language                    : English
    Service kind                : Complete Main
    Default                     : No
    Forced                      : No

    Text #1
    ID                          : 5
    Format                      : UTF-8
    Codec ID                    : S_TEXT/UTF8
    Codec ID/Info               : UTF-8 Plain Text
    Duration                    : 1 h 6 min
    Bit rate                    : 0 b/s
    Count of elements           : 10
    Stream size                 : 281 Bytes (0%)
    Title                       : Forzados-SRT [CinemaniaHDD]
    Language                    : Spanish
    Default                     : Yes
    Forced                      : Yes

    Text #2
    ID                          : 6
    Format                      : UTF-8
    Codec ID                    : S_TEXT/UTF8
    Codec ID/Info               : UTF-8 Plain Text
    Duration                    : 1 h 35 min
    Bit rate                    : 34 b/s
    Count of elements           : 856
    Stream size                 : 24.2 KiB (0%)
    Title                       : Español-SRT [CinemaniaHDD]
    Language                    : Spanish
    Default                     : No
    Forced                      : No

    Text #3
    ID                          : 7
    Format                      : UTF-8
    Codec ID                    : S_TEXT/UTF8
    Codec ID/Info               : UTF-8 Plain Text
    Duration                    : 1 h 34 min
    Bit rate                    : 33 b/s
    Count of elements           : 736
    Stream size                 : 23.2 KiB (0%)
    Title                       : Ingles [CinemaniaHDD]
    Language                    : English
    Default                     : No
    Forced                      : No

    Menu
    00:00:00.000                : Opening Credits / the Dragon
    00:10:24.207                : Jeopardizing the Community
    00:19:38.928                : Alarm!
    00:25:18.976                : The Draft
    00:39:26.614                : Off to London
    00:50:45.292                : Castle Under Attack
    01:01:49.164                : Preparing for Magic Hour
    01:10:08.913                : The Americans Arrive
    01:19:52.663                : A New Form of Defense
    01:29:41.209                : Attack!
    01:34:55.899                : Starting Over

  • Peso: 28.5 GiB

Sinopsis

Descargar El reinado del fuego (2002) REMUX 1080p Latino. En el Londres actual, Quinn, un niño de 12 años, despierta por error a un enorme dragón de su letargo de siglos. Veinte años más tarde, pueden apreciarse las devastadoras consecuencias del paso de la bestia y de sus vástagos en la práctica totalidad del planeta. Los dragones son seres extremadamente inteligentes, muy evolucionados… y no tienen ninguna intención de compartir la Tierra con los humanos. Quinn se ha hecho mayor y ahora es Jefe de Bomberos. Su tarea es mantener a las bestias alejadas y defender a una pequeña comunidad que lucha por su supervivencia. En medio de este caos aparece Van Zan, un emprendedor americano que afirma saber cómo acabar con los dragones y salvar a la humanidad; y además con un método que Quinn jamás había visto utilizar antes…

Audio Español Latino AC3 5.1 Bluray – Ingles TrueHD 5.1 + AC3 5.1 Bluray
Disponible Solo Para VIP!!!

Ficha técnica

Video trailer de la película

Enlaces de descarga

Rip de Bluray

Descargar El reinado del fuego (2002) REMUX 1080p Latino


Aportes de DPeliculasHDmega la pass es:dpeliculashdmega.org Aportes de CinemaniaHD la pass es:cinemaniahdd.com
Guardado en : Acción , Aventura , Fantasía , Remux

Películas relacionadas

  • The Expendables (2010) [Open Matte] WEB-DL 1080p Latino

    The Expendables (2010) [Open Matte] WEB-DL 1080p Latino

    2010
    The Expendables (2010) [Open Matte] WEB-DL 1080p Latino

    1h 43m 2010

    Un grupo de mercenarios es contratado para infiltrarse en un país sudamericano y derrocar a su despiadado...

    Director: Sylvester Stallone

    Género: Acción

    Actores: Victor Eli Hugo

  • Carter (2022) NF WEB-DL 1080p Latino

    Carter (2022) NF WEB-DL 1080p Latino

    2022
    Carter (2022) NF WEB-DL 1080p Latino

    2h 12m 2022

    Representa la impresionante persecución del agente 'Carter', introducido en una operación misteriosa...

    Director: Jung Byung-gil

    Género: Acción

    Actores: Lee Sung-jae

  • Prey (2022) 4K-HDR WEB-DL 2160p Latino

    Prey (2022) 4K-HDR WEB-DL 2160p Latino

    2022
    Prey (2022) 4K-HDR WEB-DL 2160p Latino

    1h 40m 2022

    Ambientada hace 300 años en la Nación Comanche. Naru es una joven guerrera, feroz y altamente hábil,...

    Director: Richard Cowan

    Género: 4K HDR

    Actores: Tyson Carter

El reinado del fuego (2002) REMUX 1080p Latino pelicula full hd, El reinado del fuego (2002) REMUX 1080p Latino mega latino, El reinado del fuego (2002) REMUX 1080p Latino 4k latino, El reinado del fuego (2002) REMUX 1080p Latino pelicula completa, El reinado del fuego (2002) REMUX 1080p Latino descargar gratis, descargar El reinado del fuego (2002) REMUX 1080p Latino pelicula latino, El reinado del fuego (2002) REMUX 1080p Latino 1 link mega, El reinado del fuego (2002) REMUX 1080p Latino 1 link google drive, El reinado del fuego (2002) REMUX 1080p Latino hd 1080p latino.
Comentarios 0