×

¿Problemas para descargar con Mozilla, EDGE? Deshabilita la opción "Abrir vinculos en una pestaña nueva" tal como lo muestra ésta imagen.

El reinado del fuego (2002) 1080p Latino

422 vistas

Información de El reinado del fuego (2002) 1080p Latino

Datos de la película

  • Calidad: 1080p
  • Audio: Español Latino AC3 5.1 BLURAY - Ingles AC3 5.1 BLURAY
  • Subtitulos: Español Latino SRT - Ingles SRT
  • Resolución: 1920x818p
  • Formato: MKV
  • Codec: H.264
  • Encoder: CinefiloCool
  • Mediainfo: Clic para Mostrar Datos Ver
  • El Reinado Del Fuego (2002) 1080p Latino-CMHDD.mkv
    Format                      : Matroska
    Format version              : Version 4
    File size                   : 3.34 GiB
    Duration                    : 1 h 41 min
    Overall bit rate            : 4 685 kb/s
    Movie name                  : Reign of Fire (2002) CinemaniaHDD.Net
    Encoded date                : UTC 2022-05-10 05:12:06
    Writing application         : mkvmerge v56.1.0 ('My Friend') 64-bit
    Writing library             : libebml v1.4.2 + libmatroska v1.6.4
    Attachments                 : CINEMANIAHD.png

    Video
    ID                          : 1
    Format                      : AVC
    Format/Info                 : Advanced Video Codec
    Format profile              : High@L4
    Format settings             : CABAC / 4 Ref Frames
    Format settings, CABAC      : Yes
    Format settings, Reference  : 4 frames
    Codec ID                    : V_MPEG4/ISO/AVC
    Duration                    : 1 h 41 min
    Bit rate                    : 3 600 kb/s
    Width                       : 1 920 pixels
    Height                      : 818 pixels
    Display aspect ratio        : 2.35:1
    Frame rate mode             : Constant
    Frame rate                  : 23.976 (24000/1001) FPS
    Color space                 : YUV
    Chroma subsampling          : 4:2:0
    Bit depth                   : 8 bits
    Scan type                   : Progressive
    Bits/(Pixel*Frame)          : 0.096
    Stream size                 : 2.56 GiB (77%)
    Title                       : HD1080p [CinemaniaHDD]
    Writing library             : x264 core 138 r2358 9e941d1
    Encoding settings           : cabac=1 / ref=4 / deblock=1:-3:-3 / analyse=0x3:0x133 / me=umh / subme=10 / psy=1 / psy_rd=1.00:0.00 / mixed_ref=1 / me_range=16 / chroma_me=1 / trellis=2 / 8x8dct=1 / cqm=0 / deadzone=21,11 / fast_pskip=1 / chroma_qp_offset=-2 / threads=6 / lookahead_threads=1 / sliced_threads=0 / nr=0 / decimate=1 / interlaced=0 / bluray_compat=0 / constrained_intra=0 / bframes=6 / b_pyramid=0 / b_adapt=1 / b_bias=0 / direct=1 / weightb=1 / open_gop=0 / weightp=2 / keyint=240 / keyint_min=24 / scenecut=40 / intra_refresh=0 / rc_lookahead=40 / rc=2pass / mbtree=1 / bitrate=3600 / ratetol=1.0 / qcomp=0.60 / qpmin=0 / qpmax=69 / qpstep=4 / cplxblur=20.0 / qblur=0.5 / vbv_maxrate=20000 / vbv_bufsize=20000 / nal_hrd=none / ip_ratio=1.40 / aq=1:1.00
    Default                     : Yes
    Forced                      : Yes

    Audio #1
    ID                          : 2
    Format                      : AC-3
    Format/Info                 : Audio Coding 3
    Commercial name             : Dolby Digital
    Codec ID                    : A_AC3
    Duration                    : 1 h 41 min
    Bit rate mode               : Constant
    Bit rate                    : 640 kb/s
    Channel(s)                  : 6 channels
    Channel layout              : L R C LFE Ls Rs
    Sampling rate               : 48.0 kHz
    Frame rate                  : 31.250 FPS (1536 SPF)
    Compression mode            : Lossy
    Stream size                 : 467 MiB (14%)
    Title                       : Español Latino [CinemaniaHDD]
    Language                    : Spanish
    Service kind                : Complete Main
    Default                     : Yes
    Forced                      : Yes

    Audio #2
    ID                          : 3
    Format                      : AC-3
    Format/Info                 : Audio Coding 3
    Commercial name             : Dolby Digital
    Codec ID                    : A_AC3
    Duration                    : 1 h 41 min
    Bit rate mode               : Constant
    Bit rate                    : 448 kb/s
    Channel(s)                  : 6 channels
    Channel layout              : L R C LFE Ls Rs
    Sampling rate               : 48.0 kHz
    Frame rate                  : 31.250 FPS (1536 SPF)
    Compression mode            : Lossy
    Stream size                 : 327 MiB (10%)
    Title                       : Ingles [CinemaniaHDD]
    Language                    : English
    Service kind                : Complete Main
    Default                     : No
    Forced                      : No

    Text #1
    ID                          : 4
    Format                      : UTF-8
    Codec ID                    : S_TEXT/UTF8
    Codec ID/Info               : UTF-8 Plain Text
    Duration                    : 1 h 6 min
    Bit rate                    : 0 b/s
    Count of elements           : 10
    Stream size                 : 281 Bytes (0%)
    Title                       : Forzados-SRT [CinemaniaHDD]
    Language                    : Spanish
    Default                     : Yes
    Forced                      : Yes

    Text #2
    ID                          : 5
    Format                      : UTF-8
    Codec ID                    : S_TEXT/UTF8
    Codec ID/Info               : UTF-8 Plain Text
    Duration                    : 1 h 35 min
    Bit rate                    : 34 b/s
    Count of elements           : 856
    Stream size                 : 24.2 KiB (0%)
    Title                       : Español-SRT [CinemaniaHDD]
    Language                    : Spanish
    Default                     : No
    Forced                      : No

    Text #3
    ID                          : 6
    Format                      : UTF-8
    Codec ID                    : S_TEXT/UTF8
    Codec ID/Info               : UTF-8 Plain Text
    Duration                    : 1 h 34 min
    Bit rate                    : 33 b/s
    Count of elements           : 736
    Stream size                 : 23.2 KiB (0%)
    Title                       : Ingles-SRT [CinemaniaHDD]
    Language                    : English
    Default                     : No
    Forced                      : No

    Menu
    00:00:00.000                : Opening Credits / the Dragon
    00:10:21.834                : Jeopardizing the Community
    00:19:37.867                : Alarm!
    00:25:17.668                : The Draft
    00:39:24.369                : Off to London
    00:50:41.369                : Castle Under Attack
    01:01:45.536                : Preparing for Magic Hour
    01:10:04.037                : The Americans Arrive
    01:19:47.738                : A New Form of Defense
    01:29:35.706                : Attack!
    01:34:50.073                : Starting Over
    01:41:50.707                : End

  • Peso: 3.34 GiB

Sinopsis

Descargar El reinado del fuego (2002) 1080p Latino. En el Londres actual, Quinn, un niño de 12 años, despierta por error a un enorme dragón de su letargo de siglos. Veinte años más tarde, pueden apreciarse las devastadoras consecuencias del paso de la bestia y de sus vástagos en la práctica totalidad del planeta. Los dragones son seres extremadamente inteligentes, muy evolucionados… y no tienen ninguna intención de compartir la Tierra con los humanos. Quinn se ha hecho mayor y ahora es Jefe de Bomberos. Su tarea es mantener a las bestias alejadas y defender a una pequeña comunidad que lucha por su supervivencia. En medio de este caos aparece Van Zan, un emprendedor americano que afirma saber cómo acabar con los dragones y salvar a la humanidad; y además con un método que Quinn jamás había visto utilizar antes…

Ficha técnica

Video trailer de la película

Enlaces de descarga

Rip de Bluray

Descargar El reinado del fuego (2002) 1080p Latino




Aportes de DPeliculasHDmega la pass es:dpeliculashdmega.org Aportes de CinemaniaHD la pass es:cinemaniahdd.com
Guardado en : Acción , Aventura , Fantasía , HD 1080p

Películas relacionadas

descargar El reinado del fuego (2002) 1080p Latino 1080p 1080p gratis, El reinado del fuego (2002) 1080p Latino 1080p mega 1 link, El reinado del fuego (2002) 1080p Latino 1080p pelicula completa, descargar El reinado del fuego (2002) 1080p Latino 1080p gratis en mega.

El reinado del fuego (2002) 1080p Latino pelicula full hd, El reinado del fuego (2002) 1080p Latino mega latino, El reinado del fuego (2002) 1080p Latino 4k latino, El reinado del fuego (2002) 1080p Latino pelicula completa, El reinado del fuego (2002) 1080p Latino descargar gratis, descargar El reinado del fuego (2002) 1080p Latino pelicula latino, El reinado del fuego (2002) 1080p Latino 1 link mega, El reinado del fuego (2002) 1080p Latino 1 link google drive, El reinado del fuego (2002) 1080p Latino hd 1080p latino.
Comentarios 0