Regreso del TodoPoderoso (2007) Full 1080p Latino

1.540 vistas
1 estrella2 estrellas3 estrellas4 estrellas5 estrellas (1 votos, promedio: 5,00 de 5)
Cargando…

Información de Regreso del TodoPoderoso (2007) Full 1080p Latino

Datos de la película

  • Calidad: Full 1080p
  • Audio: Español Latino DTS 5.1 BLURAY - Ingles DTS 5.1 BLURAY
  • Subtitulos: Español Latino PGS - Ingles PGS
  • Resolución: 1920x1080p
  • Formato: MKV
  • Codec: H.264
  • Encoder: Dpelis
  • Mediainfo: Clic para Mostrar Datos Ver
  • Format                                   : Matroska
    Format version                           : Version 4 / Version 2
    File size                                : 4.81 GiB
    Duration                                 : 1 h 35 min
    Overall bit rate                         : 7 199 kb/s
    Movie name                               : dpeliculashdmega,org
    Encoded date                             : UTC 2017-11-27 19:24:25 / UTC 2017-11-27T00:46:08Z
    Writing application                      : mkvmerge v15.0.0 ('Duel with the Devil') 64-bit
    Writing library                          : libebml v1.3.5 + libmatroska v1.4.5 / Lavf57.7.2

    Video
    ID                                       : 1
    Format                                   : AVC
    Format/Info                              : Advanced Video Codec
    Format profile                           : High@L4.1
    Format settings                          : CABAC / 4 Ref Frames
    Format settings, CABAC                   : Yes
    Format settings, RefFrames               : 4 frames
    Codec ID                                 : V_MPEG4/ISO/AVC
    Duration                                 : 1 h 35 min
    Bit rate                                 : 4 779 kb/s
    Width                                    : 1 920 pixels
    Height                                   : 1 080 pixels
    Display aspect ratio                     : 16:9
    Frame rate mode                          : Constant
    Frame rate                               : 23.976 (24000/1001) FPS
    Color space                              : YUV
    Chroma subsampling                       : 4:2:0
    Bit depth                                : 8 bits
    Scan type                                : Progressive
    Bits/(Pixel*Frame)                       : 0.096
    Stream size                              : 3.19 GiB (66%)
    Title                                    : Regreso del TodoPoderoso (2007) Full 1080p Latino
    Writing library                          : x264 core 148 r2708 86b7198
    Encoding settings                        : cabac=1 / ref=4 / deblock=1:0:0 / analyse=0x3:0x133 / me=esa / subme=10 / psy=1 / psy_rd=1.00:0.00 / mixed_ref=1 / me_range=24 / chroma_me=1 / trellis=2 / 8x8dct=1 / cqm=0 / deadzone=21,11 / fast_pskip=1 / chroma_qp_offset=-2 / threads=34 / lookahead_threads=5 / sliced_threads=0 / nr=0 / decimate=1 / interlaced=0 / bluray_compat=0 / constrained_intra=0 / bframes=8 / b_pyramid=2 / b_adapt=2 / b_bias=0 / direct=3 / weightb=1 / open_gop=0 / weightp=2 / keyint=240 / keyint_min=24 / scenecut=40 / intra_refresh=0 / rc_lookahead=60 / rc=crf / mbtree=1 / crf=20.0 / qcomp=0.60 / qpmin=0 / qpmax=69 / qpstep=4 / vbv_maxrate=62500 / vbv_bufsize=78125 / crf_max=0.0 / nal_hrd=none / filler=0 / ip_ratio=1.40 / aq=1:1.00
    Language                                 : English
    Default                                  : Yes
    Forced                                   : No
    Color range                              : Limited
    Color primaries                          : BT.709
    Transfer characteristics                 : BT.709
    Matrix coefficients                      : BT.709
    Statistics Tags Issue                    : mkvmerge v15.0.0 ('Duel with the Devil') 64-bit 2017-11-27 19:24:25 / mkvmerge v15.0.0 ('Duel with the Devil') 64-bit 2017-11-27 19:24:25 / UTC 2017-11-27T00:46:08Z
    FromStats_BitRate                        : 4894856
    FromStats_Duration                       : 01:35:40.777000000
    FromStats_FrameCount                     : 137641
    FromStats_StreamSize                     : 3512535084

    Audio #1
    ID                                       : 2
    Format                                   : DTS
    Format/Info                              : Digital Theater Systems
    Mode                                     : 16
    Format settings, Endianness              : Big
    Codec ID                                 : A_DTS
    Duration                                 : 1 h 35 min
    Bit rate mode                            : Constant
    Bit rate                                 : 768 kb/s
    Channel(s)                               : 6 channels
    Channel positions                        : Front: L C R, Side: L R, LFE
    Sampling rate                            : 48.0 kHz
    Frame rate                               : 93.750 FPS (512 SPF)
    Bit depth                                : 24 bits
    Compression mode                         : Lossy
    Delay relative to video                  : -21 ms
    Stream size                              : 526 MiB (11%)
    Title                                    : Latino-DTS
    Language                                 : Spanish
    Default                                  : Yes
    Forced                                   : No
    Statistics Tags Issue                    : mkvmerge v15.0.0 ('Duel with the Devil') 64-bit 2017-11-27 19:24:25 / mkvmerge v15.0.0 ('Duel with the Devil') 64-bit 2017-11-27 19:24:25 / UTC 2017-11-27T00:46:08Z
    FromStats_BitRate                        : 767999
    FromStats_Duration                       : 01:35:40.779000000
    FromStats_FrameCount                     : 538198
    FromStats_StreamSize                     : 551114752

    Audio #2
    ID                                       : 3
    Format                                   : DTS
    Format/Info                              : Digital Theater Systems
    Mode                                     : 16
    Format settings, Endianness              : Big
    Codec ID                                 : A_DTS
    Duration                                 : 1 h 35 min
    Bit rate mode                            : Constant
    Bit rate                                 : 1 509 kb/s
    Channel(s)                               : 6 channels
    Channel positions                        : Front: L C R, Side: L R, LFE
    Sampling rate                            : 48.0 kHz
    Frame rate                               : 93.750 FPS (512 SPF)
    Bit depth                                : 24 bits
    Compression mode                         : Lossy
    Delay relative to video                  : -21 ms
    Stream size                              : 1.01 GiB (21%)
    Title                                    : Ingles-DTS
    Language                                 : English
    Default                                  : No
    Forced                                   : No
    Statistics Tags Issue                    : mkvmerge v15.0.0 ('Duel with the Devil') 64-bit 2017-11-27 19:24:25 / mkvmerge v15.0.0 ('Duel with the Devil') 64-bit 2017-11-27 19:24:25 / UTC 2017-11-27T00:46:08Z
    FromStats_BitRate                        : 1509000
    FromStats_Duration                       : 01:35:40.768000000
    FromStats_FrameCount                     : 538197
    FromStats_StreamSize                     : 1082852364

    Text #1
    ID                                       : 4
    Format                                   : PGS
    Muxing mode                              : zlib
    Codec ID                                 : S_HDMV/PGS
    Codec ID/Info                            : Picture based subtitle format used on BDs/HD-DVDs
    Language                                 : Spanish
    Default                                  : No
    Forced                                   : No
    Statistics Tags Issue                    : mkvmerge v15.0.0 ('Duel with the Devil') 64-bit 2017-11-27 19:24:25 / mkvmerge v15.0.0 ('Duel with the Devil') 64-bit 2017-11-27 19:24:25 / UTC 2017-11-27T00:46:08Z
    FromStats_BitRate                        : 39318
    FromStats_Duration                       : 01:29:32.408000000
    FromStats_FrameCount                     : 2389
    FromStats_StreamSize                     : 26404424

    Text #2
    ID                                       : 5
    Format                                   : PGS
    Muxing mode                              : zlib
    Codec ID                                 : S_HDMV/PGS
    Codec ID/Info                            : Picture based subtitle format used on BDs/HD-DVDs
    Language                                 : English
    Default                                  : No
    Forced                                   : No
    Statistics Tags Issue                    : mkvmerge v15.0.0 ('Duel with the Devil') 64-bit 2017-11-27 19:24:25 / mkvmerge v15.0.0 ('Duel with the Devil') 64-bit 2017-11-27 19:24:25 / UTC 2017-11-27T00:46:08Z
    FromStats_BitRate                        : 50938
    FromStats_Duration                       : 01:29:35.162000000
    FromStats_FrameCount                     : 2753
    FromStats_StreamSize                     : 34225348

  • Peso: 4.81 GiB

Sinopsis

Comienza una nueva vida para Evan Baxter, su mujer Joan y sus tres hijos. Recién elegido congresista de Nueva York, y decidido a marcar la historia de su país, el antiguo presentador estrella le pide a Dios que le ayude a “cambiar el mundo”, sin sospechar que ya había sido elegido para una misión de gran importancia…

Cuando el congresista Long – uno de los hombres más influyentes de Washington – le propone una alianza, el inocente de Baxter está convencido de que su oración ha sido atendida. Pero el desconcierto no tarda en crear problemas en su familia y en el seno de su fiel equipo. ¿Por qué le envían herramientas prehistóricas y madera? ¿Por qué aves y mamíferos de todas las especies aparecen ininterrumpidamente cada día invadiendo cada vez más el vecindario? ¿Y por qué Evan se cree obligado a cambiar su traje por una larga túnica?

Ficha técnica

Video trailer de la película

Enlaces de descarga

Rip de Bluray

Descargar Regreso del TodoPoderoso (2007) Full 1080p Latino




Aportes de DPeliculasHDmega la pass es:dpeliculashdmega.org Aportes de CinemaniaHD la pass es:cinemaniahdd.com

Películas relacionadas

  • La balada de Buster Scruggs (2018) NF 1080p Latino

    2018
    La balada de Buster Scruggs (2018) NF 1080p Latino

    0.0 2h 12m 2018

    Los siempre singulares Joel y Ethan Cohen escriben y dirigen esta antología de seis historias del Salvaje...

    Director: Joel Coen

    Género: Comedia

    Actores: Zoe Kazan

  • Cambio de princesa (2018) NF 1080p Latino

    2018
    Cambio de princesa (2018) NF 1080p Latino

    0.0 1h 41m 2018

    Una repostera de Chicago y una futura princesa descubren que parecen gemelas, así que idean un plan...

    Director: Mike Rohl

    Género: Comedia

    Actores: Vanessa Hudgens

  • La pequeña brujita (2018) AMZN 1080p Latino

    2018
    La pequeña brujita (2018) AMZN 1080p Latino

    5.0 1h 43m 2018

    Descargar La pequeña brujita (2018) AMZN 1080p Latino, Mega, Google Drive. La pequeña bruja sólo tiene...

    Director: Mike Schaerer

    Género: Comedia

    Actores: Verena Bosshard

  • El Justiciero 2 (2018) Full 1080p Latino

    2018
    El Justiciero 2 (2018) Full 1080p Latino

    5.0 2h 0m 2018

    Descargar El Justiciero 2 (2018) Full 1080p Latino, Mega, Google Drive. Robert McCall (Denzel Washington)...

    Director: Donald Sparks

    Género: Acción

    Actores: Wesley Pereira

Comentarios 5
  • slash - 20 diciembre, 2017

    Muchas gracias por completar la Saga.

  • The Master - 28 noviembre, 2017

    Gracias…!!

  • josue - 27 noviembre, 2017

    Ahora estoy recuperando todos los archivos que perdi gracias, disculpen se viene alguna serie? para ir separando espacio

    • Dpelis2 - 27 noviembre, 2017

      En diciembre se viene GOT Temporada 7 y Algunas mas

      • josue - 27 noviembre, 2017

        Es lo que esperaba, Gracias!