×

¿Problemas para descargar con Mozilla, EDGE? Deshabilita la opción "Abrir vinculos en una pestaña nueva" tal como lo muestra ésta imagen.

Harry Potter 20 Aniversario: Regreso a Hogwarts (2022) PLACEBO Full HD 1080p Latino

283 vistas

Información de Harry Potter 20 Aniversario: Regreso a Hogwarts (2022) PLACEBO Full HD 1080p Latino

Datos de la película

  • Calidad: Full 1080p
  • Audio: Español Latino AC3 5.1 BLURAY - Ingles DTS 5.1 BLURAY
  • Subtitulos: Español Latino PGS - Ingles PGS
  • Resolución: 1920x1080p
  • Formato: MKV
  • Codec: H.264
  • Encoder: Melkor
  • Mediainfo: Clic para Mostrar Datos Ver
  • Harry Potter 20 Aniversario Regreso a Hogwarts (2022) PLACEBO 1080p Latino.mkv
    Format                      : Matroska
    Format version              : Version 4
    File size                   : 5.14 GiB
    Duration                    : 1 h 42 min
    Overall bit rate            : 7 147 kb/s
    Movie name                  : Harry Potter 20th Anniversary. Return to Hogwarts (2022) CinemaniaHDD.Net
    Encoded date                : UTC 2022-10-14 02:49:18
    Writing application         : mkvmerge v56.1.0 ('My Friend') 64-bit
    Writing library             : libebml v1.4.2 + libmatroska v1.6.4
    Attachments                 : CINEMANIAHD.png

    Video
    ID                          : 1
    Format                      : AVC
    Format/Info                 : Advanced Video Codec
    Format profile              : High@L4.1
    Format settings             : CABAC / 4 Ref Frames
    Format settings, CABAC      : Yes
    Format settings, Reference  : 4 frames
    Codec ID                    : V_MPEG4/ISO/AVC
    Duration                    : 1 h 42 min
    Bit rate                    : 4 958 kb/s
    Width                       : 1 920 pixels
    Height                      : 1 080 pixels
    Display aspect ratio        : 16:9
    Frame rate mode             : Constant
    Frame rate                  : 23.976 (24000/1001) FPS
    Color space                 : YUV
    Chroma subsampling          : 4:2:0
    Bit depth                   : 8 bits
    Scan type                   : Progressive
    Bits/(Pixel*Frame)          : 0.100
    Stream size                 : 3.57 GiB (69%)
    Title                       : Full HD1080p [CinemaniaHDD]
    Writing library             : x264 core 163 r3059 b684ebe0
    Encoding settings           : cabac=1 / ref=4 / deblock=1:0:0 / analyse=0x3:0x133 / me=tesa / subme=11 / psy=1 / psy_rd=1.00:0.00 / mixed_ref=1 / me_range=24 / chroma_me=1 / trellis=2 / 8x8dct=1 / cqm=0 / deadzone=21,11 / fast_pskip=0 / chroma_qp_offset=-2 / threads=24 / lookahead_threads=6 / sliced_threads=0 / nr=0 / decimate=1 / interlaced=0 / bluray_compat=0 / constrained_intra=0 / bframes=16 / b_pyramid=2 / b_adapt=2 / b_bias=0 / direct=3 / weightb=1 / open_gop=0 / weightp=2 / keyint=240 / keyint_min=24 / scenecut=40 / intra_refresh=0 / rc_lookahead=60 / rc=crf / mbtree=1 / crf=19.0 / qcomp=0.60 / qpmin=0 / qpmax=69 / qpstep=4 / vbv_maxrate=62500 / vbv_bufsize=78125 / crf_max=0.0 / nal_hrd=none / filler=0 / ip_ratio=1.40 / aq=1:1.00
    Default                     : Yes
    Forced                      : Yes
    Color range                 : Limited
    Color primaries             : BT.709
    Transfer characteristics    : BT.709
    Matrix coefficients         : BT.709

    Audio #1
    ID                          : 2
    Format                      : AC-3
    Format/Info                 : Audio Coding 3
    Commercial name             : Dolby Digital
    Codec ID                    : A_AC3
    Duration                    : 1 h 42 min
    Bit rate mode               : Constant
    Bit rate                    : 640 kb/s
    Channel(s)                  : 6 channels
    Channel layout              : L R C LFE Ls Rs
    Sampling rate               : 48.0 kHz
    Frame rate                  : 31.250 FPS (1536 SPF)
    Compression mode            : Lossy
    Stream size                 : 471 MiB (9%)
    Title                       : Español Latino [CinemaniaHDD]
    Language                    : Spanish
    Service kind                : Complete Main
    Default                     : Yes
    Forced                      : Yes

    Audio #2
    ID                          : 3
    Format                      : DTS
    Format/Info                 : Digital Theater Systems
    Codec ID                    : A_DTS
    Duration                    : 1 h 42 min
    Bit rate mode               : Constant
    Bit rate                    : 1 509 kb/s
    Channel(s)                  : 6 channels
    Channel layout              : C L R Ls Rs LFE
    Sampling rate               : 48.0 kHz
    Frame rate                  : 93.750 FPS (512 SPF)
    Bit depth                   : 24 bits
    Compression mode            : Lossy
    Stream size                 : 1.09 GiB (21%)
    Title                       : Ingles [CinemaniaHDD]
    Language                    : English
    Default                     : No
    Forced                      : No

    Text #1
    ID                          : 4
    Format                      : PGS
    Muxing mode                 : zlib
    Codec ID                    : S_HDMV/PGS
    Codec ID/Info               : Picture based subtitle format used on BDs/HD-DVDs
    Duration                    : 1 h 42 min
    Bit rate                    : 2 164 b/s
    Count of elements           : 120
    Stream size                 : 1.59 MiB (0%)
    Title                       : Forzados-PGS [CinemaniaHDD]
    Language                    : Spanish
    Default                     : No
    Forced                      : No

    Text #2
    ID                          : 5
    Format                      : PGS
    Muxing mode                 : zlib
    Codec ID                    : S_HDMV/PGS
    Codec ID/Info               : Picture based subtitle format used on BDs/HD-DVDs
    Duration                    : 1 h 42 min
    Bit rate                    : 61.1 kb/s
    Count of elements           : 3850
    Stream size                 : 44.9 MiB (1%)
    Title                       : Español-PGS [CinemaniaHDD]
    Language                    : Spanish
    Default                     : No
    Forced                      : No

    Text #3
    ID                          : 6
    Format                      : PGS
    Muxing mode                 : zlib
    Codec ID                    : S_HDMV/PGS
    Codec ID/Info               : Picture based subtitle format used on BDs/HD-DVDs
    Duration                    : 1 h 41 min
    Bit rate                    : 67.0 kb/s
    Count of elements           : 3934
    Stream size                 : 48.8 MiB (1%)
    Title                       : Ingles [CinemaniaHDD]
    Language                    : English
    Default                     : No
    Forced                      : No

    Text #4
    ID                          : 7
    Format                      : UTF-8
    Codec ID                    : S_TEXT/UTF8
    Codec ID/Info               : UTF-8 Plain Text
    Duration                    : 1 h 38 min
    Bit rate                    : 2 b/s
    Count of elements           : 57
    Stream size                 : 2.04 KiB (0%)
    Title                       : Forzados-SRT [CinemaniaHDD]
    Language                    : Spanish
    Default                     : Yes
    Forced                      : Yes

    Text #5
    ID                          : 8
    Format                      : UTF-8
    Codec ID                    : S_TEXT/UTF8
    Codec ID/Info               : UTF-8 Plain Text
    Duration                    : 1 h 42 min
    Bit rate                    : 105 b/s
    Count of elements           : 1923
    Stream size                 : 79.6 KiB (0%)
    Title                       : Español-SRT [CinemaniaHDD]
    Language                    : Spanish
    Default                     : No
    Forced                      : No

    Menu
    00:00:00.000                : :Chapter 01
    00:04:31.980                : :Chapter 02
    00:13:07.912                : :Chapter 03
    00:22:55.833                : :Chapter 04
    00:29:52.416                : :Chapter 05
    00:39:31.578                : :Chapter 06
    00:42:53.696                : :Chapter 07
    00:50:26.565                : :Chapter 08
    00:54:36.064                : :Chapter 09
    01:00:16.613                : :Chapter 10
    01:07:16.616                : :Chapter 11
    01:16:54.860                : :Chapter 12
    01:18:30.164                : :Chapter 13
    01:25:14.526                : :Chapter 14
    01:32:32.172                : :Chapter 15
    01:41:53.482                : :Chapter 16

  • Peso: 5.14 GiB

Sinopsis

Descargar Harry Potter 20 Aniversario: Regreso a Hogwarts (2022) PLACEBO Full HD 1080p Latino. Daniel Radcliffe, Rupert Grint y Emma Watson se unen al cineasta Chris Columbus y a otros miembros del reparto de las películas de Harry Potter para volver a Hogwarts por primera vez y celebrar el aniversario de la primera película de la saga.

Ficha técnica

Video trailer de la película

Enlaces de descarga

Rip de Bluray

Descargar Harry Potter 20 Aniversario: Regreso a Hogwarts (2022) PLACEBO Full HD 1080p Latino




Aportes de DPeliculasHDmega la pass es:dpeliculashdmega.org Aportes de CinemaniaHD la pass es:cinemaniahdd.com Aportes recientes:cinemaniahdd.net

Películas relacionadas

  • The Bodyguard (1992) Full HD 1080p Latino-CMHDD

    The Bodyguard (1992) Full HD 1080p Latino-CMHDD

    1992
    The Bodyguard (1992) Full HD 1080p Latino-CMHDD

    2h 9m 1992

    Descargar The Bodyguard (1992) Full HD 1080p Latino-CMHDD. Una cantante famosa que recibe constantes...

    Director: Mick Jackson

    Género: Acción

    Actores: Whitney Houston

  • One Day (2011) Full HD 1080p Latino-CMHDD

    One Day (2011) Full HD 1080p Latino-CMHDD

    2011
    One Day (2011) Full HD 1080p Latino-CMHDD

    1h 43m 2011

    Descargar One Day (2011) Full HD 1080p Latino-CMHDD. Emma y Dexter se conocen el día de su graduación...

    Director: Maj-Britt La Cour

    Género: Drama

    Actores: Ukweli Roach

  • Priscilla (2023) PLACEBO Full HD 1080p Latino

    Priscilla (2023) PLACEBO Full HD 1080p Latino

    2023
    Priscilla (2023) PLACEBO Full HD 1080p Latino

    1h 50m 2023

    Descargar Priscilla (2023) PLACEBO Full HD 1080p Latino. Cuando la adolescente Priscilla Beaulieu conoce...

    Director: Sofia Coppola

    Género: Drama

    Actores: Tonia Venneri

descargar Harry Potter 20 Aniversario: Regreso a Hogwarts (2022) PLACEBO Full HD 1080p Latino Full 1080p 1080p gratis, Harry Potter 20 Aniversario: Regreso a Hogwarts (2022) PLACEBO Full HD 1080p Latino Full 1080p mega 1 link, Harry Potter 20 Aniversario: Regreso a Hogwarts (2022) PLACEBO Full HD 1080p Latino Full 1080p pelicula completa, descargar Harry Potter 20 Aniversario: Regreso a Hogwarts (2022) PLACEBO Full HD 1080p Latino Full 1080p gratis en mega.

Harry Potter 20 Aniversario: Regreso a Hogwarts (2022) PLACEBO Full HD 1080p Latino pelicula full hd, Harry Potter 20 Aniversario: Regreso a Hogwarts (2022) PLACEBO Full HD 1080p Latino mega latino, Harry Potter 20 Aniversario: Regreso a Hogwarts (2022) PLACEBO Full HD 1080p Latino 4k latino, Harry Potter 20 Aniversario: Regreso a Hogwarts (2022) PLACEBO Full HD 1080p Latino pelicula completa, Harry Potter 20 Aniversario: Regreso a Hogwarts (2022) PLACEBO Full HD 1080p Latino descargar gratis, descargar Harry Potter 20 Aniversario: Regreso a Hogwarts (2022) PLACEBO Full HD 1080p Latino pelicula latino, Harry Potter 20 Aniversario: Regreso a Hogwarts (2022) PLACEBO Full HD 1080p Latino 1 link mega, Harry Potter 20 Aniversario: Regreso a Hogwarts (2022) PLACEBO Full HD 1080p Latino 1 link google drive, Harry Potter 20 Aniversario: Regreso a Hogwarts (2022) PLACEBO Full HD 1080p Latino hd 1080p latino.
Comentarios 0