×

¿Problemas para descargar con Mozilla, EDGE? Deshabilita la opción "Abrir vinculos en una pestaña nueva" tal como lo muestra ésta imagen.

Harry Potter 20 Aniversario: Regreso a Hogwarts (2022) HD 1080p Latino

293 vistas

Información de Harry Potter 20 Aniversario: Regreso a Hogwarts (2022) HD 1080p Latino

Datos de la película

  • Calidad: 1080p
  • Audio: Español Latino AC3 5.1 BLURAY - Ingles AC3 5.1 BLURAY
  • Subtitulos: Español Latino SRT- FORZADOS SRT
  • Resolución: 1920x1080p
  • Formato: MKV
  • Codec: H.264
  • Encoder: Melkor
  • Mediainfo: Clic para Mostrar Datos Ver
  • Harry Potter 20 Aniversario Regreso a Hogwarts (2022) HD 1080p Latino.mkv
    Format                      : Matroska
    Format version              : Version 4
    File size                   : 3.30 GiB
    Duration                    : 1 h 42 min
    Overall bit rate            : 4 590 kb/s
    Movie name                  : Harry Potter 20th Anniversary. Return to Hogwarts (2022) CinemaniaHDD.Net
    Encoded date                : UTC 2022-10-14 02:52:50
    Writing application         : mkvmerge v56.1.0 ('My Friend') 64-bit
    Writing library             : libebml v1.4.2 + libmatroska v1.6.4
    Attachments                 : CINEMANIAHD.png

    Video
    ID                          : 1
    Format                      : AVC
    Format/Info                 : Advanced Video Codec
    Format profile              : High@L4.1
    Format settings             : CABAC / 4 Ref Frames
    Format settings, CABAC      : Yes
    Format settings, Reference  : 4 frames
    Codec ID                    : V_MPEG4/ISO/AVC
    Duration                    : 1 h 42 min
    Bit rate                    : 3 500 kb/s
    Width                       : 1 920 pixels
    Height                      : 1 080 pixels
    Display aspect ratio        : 16:9
    Frame rate mode             : Constant
    Frame rate                  : 23.976 (24000/1001) FPS
    Color space                 : YUV
    Chroma subsampling          : 4:2:0
    Bit depth                   : 8 bits
    Scan type                   : Progressive
    Bits/(Pixel*Frame)          : 0.070
    Stream size                 : 2.52 GiB (76%)
    Title                       : HD1080p [CinemaniaHDD]
    Writing library             : x264 core 163 r3059 b684ebe0
    Encoding settings           : cabac=1 / ref=4 / deblock=1:-1:-1 / analyse=0x3:0x133 / me=umh / subme=9 / psy=1 / psy_rd=1.00:0.15 / mixed_ref=1 / me_range=16 / chroma_me=1 / trellis=2 / 8x8dct=1 / cqm=0 / deadzone=21,11 / fast_pskip=1 / chroma_qp_offset=-3 / threads=24 / lookahead_threads=2 / sliced_threads=0 / nr=0 / decimate=1 / interlaced=0 / bluray_compat=0 / constrained_intra=0 / bframes=3 / b_pyramid=2 / b_adapt=2 / b_bias=0 / direct=3 / weightb=1 / open_gop=0 / weightp=2 / keyint=240 / keyint_min=24 / scenecut=40 / intra_refresh=0 / rc_lookahead=60 / rc=2pass / mbtree=1 / bitrate=3500 / ratetol=1.0 / qcomp=0.60 / qpmin=0 / qpmax=69 / qpstep=4 / cplxblur=20.0 / qblur=0.5 / vbv_maxrate=62500 / vbv_bufsize=78125 / nal_hrd=none / filler=0 / ip_ratio=1.40 / aq=1:1.00
    Default                     : Yes
    Forced                      : Yes
    Color range                 : Limited
    Color primaries             : BT.709
    Transfer characteristics    : BT.709
    Matrix coefficients         : BT.709

    Audio #1
    ID                          : 2
    Format                      : AC-3
    Format/Info                 : Audio Coding 3
    Commercial name             : Dolby Digital
    Codec ID                    : A_AC3
    Duration                    : 1 h 42 min
    Bit rate mode               : Constant
    Bit rate                    : 640 kb/s
    Channel(s)                  : 6 channels
    Channel layout              : L R C LFE Ls Rs
    Sampling rate               : 48.0 kHz
    Frame rate                  : 31.250 FPS (1536 SPF)
    Compression mode            : Lossy
    Delay relative to video     : -5 ms
    Stream size                 : 471 MiB (14%)
    Title                       : Español Latino [CinemaniaHDD]
    Language                    : Spanish
    Service kind                : Complete Main
    Default                     : Yes
    Forced                      : Yes

    Audio #2
    ID                          : 3
    Format                      : AC-3
    Format/Info                 : Audio Coding 3
    Commercial name             : Dolby Digital
    Codec ID                    : A_AC3
    Duration                    : 1 h 42 min
    Bit rate mode               : Constant
    Bit rate                    : 448 kb/s
    Channel(s)                  : 6 channels
    Channel layout              : L R C LFE Ls Rs
    Sampling rate               : 48.0 kHz
    Frame rate                  : 31.250 FPS (1536 SPF)
    Compression mode            : Lossy
    Delay relative to video     : -5 ms
    Stream size                 : 330 MiB (10%)
    Title                       : Ingles [CinemaniaHDD]
    Language                    : English
    Service kind                : Complete Main
    Default                     : No
    Forced                      : No

    Text #1
    ID                          : 4
    Format                      : UTF-8
    Codec ID                    : S_TEXT/UTF8
    Codec ID/Info               : UTF-8 Plain Text
    Duration                    : 1 h 38 min
    Bit rate                    : 2 b/s
    Count of elements           : 57
    Stream size                 : 2.04 KiB (0%)
    Title                       : Forzados-SRT [CinemaniaHDD]
    Language                    : Spanish
    Default                     : Yes
    Forced                      : Yes

    Text #2
    ID                          : 5
    Format                      : UTF-8
    Codec ID                    : S_TEXT/UTF8
    Codec ID/Info               : UTF-8 Plain Text
    Duration                    : 1 h 42 min
    Bit rate                    : 105 b/s
    Count of elements           : 1923
    Stream size                 : 79.6 KiB (0%)
    Title                       : Español-SRT [CinemaniaHDD]
    Language                    : Spanish
    Default                     : No
    Forced                      : No

    Menu
    00:00:00.000                : :Chapter 01
    00:04:31.980                : :Chapter 02
    00:13:07.912                : :Chapter 03
    00:22:55.833                : :Chapter 04
    00:29:52.416                : :Chapter 05
    00:39:31.578                : :Chapter 06
    00:42:53.696                : :Chapter 07
    00:50:26.565                : :Chapter 08
    00:54:36.064                : :Chapter 09
    01:00:16.613                : :Chapter 10
    01:07:16.616                : :Chapter 11
    01:16:54.860                : :Chapter 12
    01:18:30.164                : :Chapter 13
    01:25:14.526                : :Chapter 14
    01:32:32.172                : :Chapter 15
    01:41:53.482                : :Chapter 16

  • Peso: 3.30 GiB

Sinopsis

Descargar Harry Potter 20 Aniversario: Regreso a Hogwarts (2022) HD 1080p Latino. Daniel Radcliffe, Rupert Grint y Emma Watson se unen al cineasta Chris Columbus y a otros miembros del reparto de las películas de Harry Potter para volver a Hogwarts por primera vez y celebrar el aniversario de la primera película de la saga.

Ficha técnica

Video trailer de la película

Enlaces de descarga

Rip de Bluray

Descargar Harry Potter 20 Aniversario: Regreso a Hogwarts (2022) HD 1080p Latino




Aportes de DPeliculasHDmega la pass es:dpeliculashdmega.org Aportes de CinemaniaHD la pass es:cinemaniahdd.com Aportes recientes:cinemaniahdd.net
Guardado en : Documental , HD 1080p

Películas relacionadas

  • Next Goal Wins (2023) 1080p Latino-CMHDD

    Next Goal Wins (2023) 1080p Latino-CMHDD

    2023
    Next Goal Wins (2023) 1080p Latino-CMHDD

    1h 44m 2023

    Descargar Next Goal Wins (2023) 1080p Latino-CMHDD. Drama deportivo que cuenta la historia del entrenador...

    Director: Zack Earl Edwards

    Género: Comedia

    Actores: William Chun

  • ¡Patos! (2023) HD 1080p Latino

    ¡Patos! (2023) HD 1080p Latino

    2023
    ¡Patos! (2023) HD 1080p Latino

    1h 23m 2023

    Descargar ¡Patos! (2023) HD 1080p Latino. Después de que una familia de patos migratorios aterriza...

    Director: Guy-Laurent Homsy

    Género: Acción

    Actores: Zeno Robinson

  • La Chica Danesa (2015) 1080p Latino-CMHDD

    La Chica Danesa (2015) 1080p Latino-CMHDD

    2015
    La Chica Danesa (2015) 1080p Latino-CMHDD

    2h 0m 2015

    Descargar La Chica Danesa (2015) 1080p Latino-CMHDD. Drama basado en la verdadera historia de una pareja...

    Director: Tom Hooper

    Género: Drama

    Actores: Victoria Emslie

  • La verdad oculta (2015) 1080p Latino-CMHDD

    La verdad oculta (2015) 1080p Latino-CMHDD

    2015
    La verdad oculta (2015) 1080p Latino-CMHDD

    2h 3m 2015

    Descargar La verdad oculta (2015) 1080p Latino-CMHDD. El Dr. Bennet Omalu (Will Smith) es un neuropatólogo...

    Director: Tracy Scott

    Género: Drama

    Actores: Will Smith

descargar Harry Potter 20 Aniversario: Regreso a Hogwarts (2022) HD 1080p Latino 1080p 1080p gratis, Harry Potter 20 Aniversario: Regreso a Hogwarts (2022) HD 1080p Latino 1080p mega 1 link, Harry Potter 20 Aniversario: Regreso a Hogwarts (2022) HD 1080p Latino 1080p pelicula completa, descargar Harry Potter 20 Aniversario: Regreso a Hogwarts (2022) HD 1080p Latino 1080p gratis en mega.

Harry Potter 20 Aniversario: Regreso a Hogwarts (2022) HD 1080p Latino pelicula full hd, Harry Potter 20 Aniversario: Regreso a Hogwarts (2022) HD 1080p Latino mega latino, Harry Potter 20 Aniversario: Regreso a Hogwarts (2022) HD 1080p Latino 4k latino, Harry Potter 20 Aniversario: Regreso a Hogwarts (2022) HD 1080p Latino pelicula completa, Harry Potter 20 Aniversario: Regreso a Hogwarts (2022) HD 1080p Latino descargar gratis, descargar Harry Potter 20 Aniversario: Regreso a Hogwarts (2022) HD 1080p Latino pelicula latino, Harry Potter 20 Aniversario: Regreso a Hogwarts (2022) HD 1080p Latino 1 link mega, Harry Potter 20 Aniversario: Regreso a Hogwarts (2022) HD 1080p Latino 1 link google drive, Harry Potter 20 Aniversario: Regreso a Hogwarts (2022) HD 1080p Latino hd 1080p latino.
Comentarios 0