×

¿Problemas para descargar con Mozilla, EDGE? Deshabilita la opción "Abrir vinculos en una pestaña nueva" tal como lo muestra ésta imagen.

Reflejos siniestros (2019) 1080p Latino

1.553 vistas

Información de Reflejos siniestros (2019) 1080p Latino

Datos de la película

  • Calidad: 1080p
  • Audio: Se especifica abajo de la Sinopsis
  • Subtitulos: Español Latino SRT- FORZADOS SRT
  • Resolución: 1920x804
  • Formato: MKV
  • Codec: H.264
  • Encoder: cinemaniahdd
  • Mediainfo: Clic para Mostrar Datos Ver
  • Reflejos siniestros (2019) 1080p Latino.mkv
    Format                      : Matroska
    Format version              : Version 4
    File size                   : 2.40 GiB
    Duration                    : 1 h 23 min
    Overall bit rate            : 4 109 kb/s
    Movie name                  : Reflejos siniestros (2019) - CinemaniaHDD.Net
    Encoded date                : UTC 2020-02-19 02:47:27
    Writing application         : mkvmerge v42.0.0 ('Overtime') 64-bit
    Writing library             : libebml v1.3.10 + libmatroska v1.5.2

    Video
    ID                          : 1
    Format                      : AVC
    Format/Info                 : Advanced Video Codec
    Format profile              : Main@L4
    Format settings             : CABAC / 4 Ref Frames
    Format settings, CABAC      : Yes
    Format settings, ReFrames   : 4 frames
    Codec ID                    : V_MPEG4/ISO/AVC
    Duration                    : 1 h 23 min
    Bit rate                    : 3 500 kb/s
    Width                       : 1 920 pixels
    Height                      : 804 pixels
    Display aspect ratio        : 2.40:1
    Frame rate mode             : Constant
    Frame rate                  : 24.000 FPS
    Color space                 : YUV
    Chroma subsampling          : 4:2:0
    Bit depth                   : 8 bits
    Scan type                   : Progressive
    Bits/(Pixel*Frame)          : 0.094
    Stream size                 : 1.99 GiB (83%)
    Title                       : CinemaniaHDD
    Writing library             : x264 core 157 r2935 545de2f
    Encoding settings           : cabac=1 / ref=3 / deblock=1:0:0 / analyse=0x1:0x111 / me=hex / subme=7 / psy=1 / psy_rd=1.00:0.00 / mixed_ref=1 / me_range=16 / chroma_me=1 / trellis=1 / 8x8dct=0 / cqm=0 / deadzone=21,11 / fast_pskip=1 / chroma_qp_offset=-2 / threads=25 / lookahead_threads=4 / sliced_threads=0 / nr=0 / decimate=1 / interlaced=0 / bluray_compat=0 / constrained_intra=0 / bframes=3 / b_pyramid=2 / b_adapt=1 / b_bias=0 / direct=1 / weightb=1 / open_gop=0 / weightp=2 / keyint=240 / keyint_min=24 / scenecut=40 / intra_refresh=0 / rc_lookahead=40 / rc=abr / mbtree=1 / bitrate=3500 / ratetol=1.0 / qcomp=0.60 / qpmin=0 / qpmax=69 / qpstep=4 / vbv_maxrate=20000 / vbv_bufsize=25000 / nal_hrd=none / filler=0 / ip_ratio=1.40 / aq=1:1.00
    Default                     : Yes
    Forced                      : No
    Color range                 : Limited
    Color primaries             : BT.709
    Transfer characteristics    : BT.709
    Matrix coefficients         : BT.709

    Audio #1
    ID                          : 2
    Format                      : AC-3
    Format/Info                 : Audio Coding 3
    Commercial name             : Dolby Digital
    Codec ID                    : A_AC3
    Duration                    : 1 h 23 min
    Bit rate mode               : Constant
    Bit rate                    : 256 kb/s
    Channel(s)                  : 2 channels
    Channel layout              : L R
    Sampling rate               : 48.0 kHz
    Frame rate                  : 31.250 FPS (1536 SPF)
    Bit depth                   : 16 bits
    Compression mode            : Lossy
    Delay relative to video     : -5 ms
    Stream size                 : 153 MiB (6%)
    Title                       : Español latino [CinemaniaHDD]
    Language                    : Spanish
    Service kind                : Complete Main
    Default                     : Yes
    Forced                      : Yes

    Audio #2
    ID                          : 3
    Format                      : AC-3
    Format/Info                 : Audio Coding 3
    Commercial name             : Dolby Digital
    Codec ID                    : A_AC3
    Duration                    : 1 h 23 min
    Bit rate mode               : Constant
    Bit rate                    : 448 kb/s
    Channel(s)                  : 6 channels
    Channel layout              : L R C LFE Ls Rs
    Sampling rate               : 48.0 kHz
    Frame rate                  : 31.250 FPS (1536 SPF)
    Bit depth                   : 16 bits
    Compression mode            : Lossy
    Delay relative to video     : -5 ms
    Stream size                 : 268 MiB (11%)
    Title                       : Inglés [CinemaniaHDD]
    Language                    : English
    Service kind                : Complete Main
    Default                     : No
    Forced                      : No

    Text #1
    ID                          : 4
    Format                      : UTF-8
    Codec ID                    : S_TEXT/UTF8
    Codec ID/Info               : UTF-8 Plain Text
    Duration                    : 27 min 40 s
    Bit rate                    : 0 b/s
    Count of elements           : 2
    Stream size                 : 10.0 Bytes (0%)
    Title                       : Forzados [CinemaniaHDD]
    Language                    : Spanish
    Default                     : Yes
    Forced                      : Yes

    Text #2
    ID                          : 5
    Format                      : UTF-8
    Codec ID                    : S_TEXT/UTF8
    Codec ID/Info               : UTF-8 Plain Text
    Duration                    : 1 h 17 min
    Bit rate                    : 50 b/s
    Count of elements           : 818
    Stream size                 : 28.9 KiB (0%)
    Title                       : Español latino [CinemaniaHDD]
    Language                    : Spanish
    Default                     : No
    Forced                      : No

    Menu
    00:00:00.000                : :Kapitel 01
    00:07:24.458                : :Kapitel 02
    00:11:44.958                : :Kapitel 03
    00:18:47.083                : :Kapitel 04
    00:25:13.833                : :Kapitel 05
    00:31:57.042                : :Kapitel 06
    00:43:59.542                : :Kapitel 07
    00:49:51.875                : :Kapitel 08
    00:55:04.500                : :Kapitel 09
    01:04:10.250                : :Kapitel 10
    01:13:30.375                : :Kapitel 11
    01:19:19.417                : :Kapitel 12
    01:23:20.417                : :Kapitel 13

     

  • Peso: 2.40 GiB

Sinopsis

El siniestro fantasma de la Reina de Espadas está en busca de sangre. Sus próximas víctimas, los estudiantes de un antiguo internado, ni se lo imaginan. Cuando deciden explorar la torre abandonada de la escuela, los avezados adolescentes descubren un espejo cubierto con misteriosos dibujos y frente a él, como si fuera un juego recitan un hechizo que hace que sus más íntimos deseos se vuelvan realidad, a cambio de nada más y nada menos que su alma.

Español Latino 2.0 – Ruso 5.1 Bluray

Ficha técnica

Video trailer de la película

Enlaces de descarga

Rip de Bluray

Descargar Reflejos siniestros (2019) 1080p Latino




Aportes de DPeliculasHDmega la pass es:dpeliculashdmega.org Aportes de CinemaniaHD la pass es:cinemaniahdd.com Aportes recientes:cinemaniahdd.net
Guardado en : HD 1080p , Suspenso , Terror

Películas relacionadas

  • 57 Seconds (2023) AMZN WEB-DL 1080p Latino

    57 Seconds (2023) AMZN WEB-DL 1080p Latino

    2023
    57 Seconds (2023) AMZN WEB-DL 1080p Latino

    1h 39m 2023

    Cuando un blogger de tecnología consigue una entrevista con un gurú de la tecnología y detiene un...

    Director: Taylor DiMarco

    Género: Acción

    Actores: Valerie E. Lamb

  • The Bodyguard (1992) 1080p Latino-CMHDD

    The Bodyguard (1992) 1080p Latino-CMHDD

    1992
    The Bodyguard (1992) 1080p Latino-CMHDD

    2h 9m 1992

    Descargar The Bodyguard (1992) 1080p Latino-CMHDD. Una cantante famosa que recibe constantes cartas anónimas...

    Director: Mick Jackson

    Género: Acción

    Actores: Whitney Houston

  • The Beekeeper (2024) AMZN WEB-DL 1080p Latino

    The Beekeeper (2024) AMZN WEB-DL 1080p Latino

    2024
    The Beekeeper (2024) AMZN WEB-DL 1080p Latino

    1h 45m 2024

    La brutal campaña de venganza de Adam Clay adquiere tintes nacionales tras revelarse que es un antiguo...

    Director: Vanluke Watson

    Género: Acción

    Actores: Victor Perez

  • Priscilla (2023) HD 1080p Latino

    Priscilla (2023) HD 1080p Latino

    2023
    Priscilla (2023) HD 1080p Latino

    1h 50m 2023

    Descargar Priscilla (2023) HD 1080p Latino. Cuando la adolescente Priscilla Beaulieu conoce a Elvis Presley...

    Director: Sofia Coppola

    Género: Drama

    Actores: Tonia Venneri

descargar Reflejos siniestros (2019) 1080p Latino 1080p 1080p gratis, Reflejos siniestros (2019) 1080p Latino 1080p mega 1 link, Reflejos siniestros (2019) 1080p Latino 1080p pelicula completa, descargar Reflejos siniestros (2019) 1080p Latino 1080p gratis en mega.

Reflejos siniestros (2019) 1080p Latino pelicula full hd, Reflejos siniestros (2019) 1080p Latino mega latino, Reflejos siniestros (2019) 1080p Latino 4k latino, Reflejos siniestros (2019) 1080p Latino pelicula completa, Reflejos siniestros (2019) 1080p Latino descargar gratis, descargar Reflejos siniestros (2019) 1080p Latino pelicula latino, Reflejos siniestros (2019) 1080p Latino 1 link mega, Reflejos siniestros (2019) 1080p Latino 1 link google drive, Reflejos siniestros (2019) 1080p Latino hd 1080p latino.
Comentarios 2