×

¿Problemas para descargar con Mozilla, EDGE? Deshabilita la opción "Abrir vinculos en una pestaña nueva" tal como lo muestra ésta imagen.

Redeeming Love (2022) 4K-HDR WEB-DL 1080p Latino

573 vistas

Información de Redeeming Love (2022) 4K-HDR WEB-DL 1080p Latino

Datos de la película

  • Calidad: 4K UHD
  • Audio: Español Latino AC3 2.0 WEB-DL - Ingles AC3 5.1 WEB-DL
  • Subtitulos: Español Latino SRT - Ingles SRT
  • Resolución: 3840x2160
  • Formato: MKV
  • Codec: HEVC
  • Encoder: cinemaniahdd
  • Mediainfo: Clic para Mostrar Datos Ver
  • Redeeming Love (2022) 4K-HDR WEB-DL 2160p Latino [CNMNHDD].mkv
    Format                      : Matroska
    Format version              : Version 4
    File size                   : 14.2 GiB
    Duration                    : 2 h 14 min
    Overall bit rate            : 15.2 Mb/s
    Movie name                  : Redeeming Love (2022) 4K-HDR - CinemaniaHDD.Net
    Encoded date                : UTC 2022-05-02 22:29:40
    Writing application         : mkvmerge v56.1.0 ('My Friend') 64-bit
    Writing library             : libebml v1.4.2 + libmatroska v1.6.4

    Video
    ID                          : 1
    Format                      : HEVC
    Format/Info                 : High Efficiency Video Coding
    Format profile              : Main 10@L5@High
    HDR format                  : SMPTE ST 2086, HDR10 compatible
    Codec ID                    : V_MPEGH/ISO/HEVC
    Duration                    : 2 h 14 min
    Bit rate                    : 14.4 Mb/s
    Width                       : 3 832 pixels
    Height                      : 1 600 pixels
    Display aspect ratio        : 2.40:1
    Frame rate mode             : Constant
    Frame rate                  : 23.976 (24000/1001) FPS
    Color space                 : YUV
    Chroma subsampling          : 4:2:0 (Type 2)
    Bit depth                   : 10 bits
    Bits/(Pixel*Frame)          : 0.098
    Stream size                 : 13.5 GiB (95%)
    Title                       : CinemaniaHDD
    Default                     : Yes
    Forced                      : No
    Color range                 : Limited
    Color primaries             : BT.2020
    Transfer characteristics    : PQ
    Matrix coefficients         : BT.2020 non-constant
    Mastering display color pri : Display P3
    Mastering display luminance : min: 0.0050 cd/m2, max: 1000 cd/m2
    Maximum Content Light Level : 1000 cd/m2
    Maximum Frame-Average Light : 122 cd/m2

    Audio #1
    ID                          : 2
    Format                      : AC-3
    Format/Info                 : Audio Coding 3
    Commercial name             : Dolby Digital
    Codec ID                    : A_AC3
    Duration                    : 2 h 14 min
    Bit rate mode               : Constant
    Bit rate                    : 384 kb/s
    Channel(s)                  : 2 channels
    Channel layout              : L R
    Sampling rate               : 48.0 kHz
    Frame rate                  : 31.250 FPS (1536 SPF)
    Compression mode            : Lossy
    Stream size                 : 368 MiB (3%)
    Title                       : Español latino [CinemaniaHDD]
    Language                    : Spanish
    Service kind                : Complete Main
    Default                     : Yes
    Forced                      : No

    Audio #2
    ID                          : 3
    Format                      : AC-3
    Format/Info                 : Audio Coding 3
    Commercial name             : Dolby Digital
    Codec ID                    : A_AC3
    Duration                    : 2 h 14 min
    Bit rate mode               : Constant
    Bit rate                    : 384 kb/s
    Channel(s)                  : 6 channels
    Channel layout              : L R C LFE Ls Rs
    Sampling rate               : 48.0 kHz
    Frame rate                  : 31.250 FPS (1536 SPF)
    Compression mode            : Lossy
    Stream size                 : 368 MiB (3%)
    Title                       : Inglés [CinemaniaHDD]
    Language                    : English
    Service kind                : Complete Main
    Default                     : No
    Forced                      : No

    Text #1
    ID                          : 4
    Format                      : UTF-8
    Codec ID                    : S_TEXT/UTF8
    Codec ID/Info               : UTF-8 Plain Text
    Duration                    : 1 h 55 min
    Bit rate                    : 0 b/s
    Count of elements           : 11
    Stream size                 : 222 Bytes (0%)
    Title                       : Forzados [CinemaniaHDD]
    Language                    : Spanish
    Default                     : Yes
    Forced                      : Yes

    Text #2
    ID                          : 5
    Format                      : UTF-8
    Codec ID                    : S_TEXT/UTF8
    Codec ID/Info               : UTF-8 Plain Text
    Duration                    : 2 h 12 min
    Bit rate                    : 36 b/s
    Count of elements           : 1411
    Stream size                 : 35.6 KiB (0%)
    Title                       : Español latino [CinemaniaHDD]
    Language                    : Spanish
    Default                     : No
    Forced                      : No

    Text #3
    ID                          : 6
    Format                      : UTF-8
    Codec ID                    : S_TEXT/UTF8
    Codec ID/Info               : UTF-8 Plain Text
    Duration                    : 2 h 13 min
    Bit rate                    : 51 b/s
    Count of elements           : 2088
    Stream size                 : 50.0 KiB (0%)
    Title                       : Inglés [CinemaniaHDD]
    Language                    : English
    Default                     : No
    Forced                      : No

     

  • Peso: 14.2 GiB

Sinopsis

Situada en la Nueva Inglaterra de 1835, la trama sigue la historia de Angela, una pequeña que fue rechazada por su padre debido a que fue producto de una aventura adultera con su madre Mae. Desde entonces, la chica se sintió culpable de la depresión de su madre y de su propio abandono, creciendo con un evidente odio hacia los hombres, todos ellos obsesionados por la fiebre de oro de la época. En su adolescencia, Angela tuvo que venderse a la prostitución para tener un lugar donde dormir y en medio de ese odio, conoce a Michael Hosea, un hombre piadoso que parece cruzar su camino con Angela para conducirla al amor redentor de Dios, desafiando, día a día, las amargas expectativas y resistencia de ella, quien no parece creer que merece algo más en la vida, algo que pueda hacerla verdaderamente feliz.

Ficha técnica

  • Titulo original: Redeeming Love
  • Fecha de lanzamiento: 21-01-2022 (South Africa, United States of America)
  • Director: D.J. Caruso
  • Género: Drama, Historia, Romance

Video trailer de la película

Enlaces de descarga

Rip de Bluray

Descargar Redeeming Love (2022) 4K-HDR WEB-DL 1080p Latino




Aportes de DPeliculasHDmega la pass es:dpeliculashdmega.org Aportes de CinemaniaHD la pass es:cinemaniahdd.com
Guardado en : Drama , Historia , Romance

Películas relacionadas

descargar Redeeming Love (2022) 4K-HDR WEB-DL 1080p Latino 4K UHD 1080p gratis, Redeeming Love (2022) 4K-HDR WEB-DL 1080p Latino 4K UHD mega 1 link, Redeeming Love (2022) 4K-HDR WEB-DL 1080p Latino 4K UHD pelicula completa, descargar Redeeming Love (2022) 4K-HDR WEB-DL 1080p Latino 4K UHD gratis en mega.

Redeeming Love (2022) 4K-HDR WEB-DL 1080p Latino pelicula full hd, Redeeming Love (2022) 4K-HDR WEB-DL 1080p Latino mega latino, Redeeming Love (2022) 4K-HDR WEB-DL 1080p Latino 4k latino, Redeeming Love (2022) 4K-HDR WEB-DL 1080p Latino pelicula completa, Redeeming Love (2022) 4K-HDR WEB-DL 1080p Latino descargar gratis, descargar Redeeming Love (2022) 4K-HDR WEB-DL 1080p Latino pelicula latino, Redeeming Love (2022) 4K-HDR WEB-DL 1080p Latino 1 link mega, Redeeming Love (2022) 4K-HDR WEB-DL 1080p Latino 1 link google drive, Redeeming Love (2022) 4K-HDR WEB-DL 1080p Latino hd 1080p latino.
Comentarios 0