Red Sparrow (2018) 4K UHD HDR Latino

603 vistas
1 estrella2 estrellas3 estrellas4 estrellas5 estrellas (1 votos, promedio: 5,00 de 5)
Cargando…

Información de Red Sparrow (2018) 4K UHD HDR Latino

Datos de la película

  • Calidad: 4K HDR
  • Audio: Español Latino AC3 5.1 BLURAY - Ingles AC3 5.1 BLURAY
  • Subtitulos: Español Latino PGS - Ingles PGS
  • Resolución: 3840x1600p
  • Formato: MKV
  • Codec: HEVC
  • Encoder: CinefiloCool
  • Mediainfo: Clic para Mostrar Datos Ver
  • Red Sparrow (2018) UHD HDR Latino.mkv
    Format                      : Matroska
    Format version              : Version 4
    File size                   : 9.93 GiB
    Duration                    : 2 h 20 min
    Overall bit rate            : 10.1 Mb/s
    Movie name                  : CinemaniaHDD.Net
    Encoded date                : UTC 2019-02-02 05:08:41
    Writing application         : mkvmerge v30.1.0 ('Forever And More') 64-bit
    Writing library             : libebml v1.3.6 + libmatroska v1.4.9

    Video
    ID                          : 1
    Format                      : HEVC
    Format/Info                 : High Efficiency Video Coding
    Commercial name             : HDR10
    Format profile              : Main [email protected]@High
    Codec ID                    : V_MPEGH/ISO/HEVC
    Duration                    : 2 h 20 min
    Bit rate                    : 9 029 kb/s
    Width                       : 3 840 pixels
    Height                      : 1 600 pixels
    Display aspect ratio        : 2.40:1
    Frame rate mode             : Constant
    Frame rate                  : 23.976 (24000/1001) FPS
    Color space                 : YUV
    Chroma subsampling          : 4:2:0 (Type 2)
    Bit depth                   : 10 bits
    Bits/(Pixel*Frame)          : 0.061
    Stream size                 : 8.84 GiB (89%)
    Title                       : 2160p HDR (Bluray)
    Writing library             : x265 2.7+338-147b7dcee675:[Windows][GCC 6.3.0][64 bit] 10bit
    Encoding settings           : cpuid=1111039 / frame-threads=5 / numa-pools=36 / wpp / no-pmode / no-pme / no-psnr / no-ssim / log-level=2 / input-csp=1 / input-res=3840x1600 / interlace=0 / total-frames=201740 / level-idc=51 / high-tier=1 / uhd-bd=0 / ref=4 / no-allow-non-conformance / repeat-headers / annexb / aud / hrd / info / hash=0 / no-temporal-layers / no-open-gop / min-keyint=1 / keyint=24 / gop-lookahead=0 / bframes=4 / b-adapt=2 / b-pyramid / bframe-bias=0 / rc-lookahead=25 / lookahead-slices=4 / scenecut=40 / radl=0 / no-intra-refresh / ctu=64 / min-cu-size=8 / rect / no-amp / max-tu-size=32 / tu-inter-depth=1 / tu-intra-depth=1 / limit-tu=0 / rdoq-level=2 / dynamic-rd=0.00 / no-ssim-rd / signhide / no-tskip / nr-intra=0 / nr-inter=0 / no-constrained-intra / no-strong-intra-smoothing / max-merge=3 / limit-refs=3 / limit-modes / me=3 / subme=3 / merange=57 / temporal-mvp / weightp / no-weightb / no-analyze-src-pics / deblock=-3:-3 / no-sao / no-sao-non-deblock / rd=4 / no-early-skip / rskip / no-fast-intra / no-tskip-fast / no-cu-lossless / no-b-intra / no-splitrd-skip / rdpenalty=0 / psy-rd=2.00 / psy-rdoq=1.00 / no-rd-refine / no-lossless / cbqpoffs=0 / crqpoffs=0 / rc=crf / crf=17.0 / qcomp=0.60 / qpstep=4 / stats-write=0 / stats-read=0 / vbv-maxrate=160000 / vbv-bufsize=160000 / vbv-init=0.9 / crf-max=0.0 / crf-min=0.0 / ipratio=1.40 / pbratio=1.30 / aq-mode=1 / aq-strength=1.00 / cutree / zone-count=0 / no-strict-cbr / qg-size=32 / no-rc-grain / qpmax=69 / qpmin=0 / no-const-vbv / sar=1 / overscan=0 / videoformat=5 / range=0 / colorprim=9 / transfer=16 / colormatrix=9 / chromaloc=1 / chromaloc-top=2 / chromaloc-bottom=2 / display-window=0 / master-display=G(13250,34500)B(7500,3000)R(34000,16000)WP(15635,16450)L(10000000,50) / max-cll=0,0 / min-luma=0 / max-luma=1023 / log2-max-poc-lsb=8 / vui-timing-info / vui-hrd-info / slices=1 / no-opt-qp-pps / no-opt-ref-list-length-pps / no-multi-pass-opt-rps / scenecut-bias=0.05 / no-opt-cu-delta-qp / no-aq-motion / hdr / hdr-opt / no-dhdr10-opt / no-idr-recovery-sei / analysis-reuse-level=5 / scale-factor=0 / refine-intra=0 / refine-inter=0 / refine-mv=0 / no-limit-sao / ctu-info=0 / no-lowpass-dct / refine-mv-type=0 / copy-pic=1 / max-ausize-factor=1.0 / no-dynamic-refine / no-single-sei
    Default                     : Yes
    Forced                      : No
    Color range                 : Limited
    Color primaries             : BT.2020
    Transfer characteristics    : PQ
    Matrix coefficients         : BT.2020 non-constant
    Mastering display color pri : Display P3
    Mastering display luminance : min: 0.0050 cd/m2, max: 1000 cd/m2

    Audio #1
    ID                          : 2
    Format                      : AC-3
    Format/Info                 : Audio Coding 3
    Commercial name             : Dolby Digital
    Codec ID                    : A_AC3
    Duration                    : 2 h 20 min
    Bit rate mode               : Constant
    Bit rate                    : 448 kb/s
    Channel(s)                  : 6 channels
    Channel layout              : L R C LFE Ls Rs
    Sampling rate               : 48.0 kHz
    Frame rate                  : 31.250 FPS (1536 SPF)
    Bit depth                   : 16 bits
    Compression mode            : Lossy
    Stream size                 : 449 MiB (4%)
    Title                       : AC3_5.1_Bluray_Esp
    Language                    : Spanish
    Service kind                : Complete Main
    Default                     : Yes
    Forced                      : Yes

    Audio #2
    ID                          : 3
    Format                      : AC-3
    Format/Info                 : Audio Coding 3
    Commercial name             : Dolby Digital
    Codec ID                    : A_AC3
    Duration                    : 2 h 20 min
    Bit rate mode               : Constant
    Bit rate                    : 640 kb/s
    Channel(s)                  : 6 channels
    Channel layout              : L R C LFE Ls Rs
    Sampling rate               : 48.0 kHz
    Frame rate                  : 31.250 FPS (1536 SPF)
    Bit depth                   : 16 bits
    Compression mode            : Lossy
    Stream size                 : 642 MiB (6%)
    Title                       : AC3_5.1_Bluray_Eng
    Language                    : English
    Service kind                : Complete Main
    Default                     : No
    Forced                      : No

    Text #1
    ID                          : 4
    Format                      : PGS
    Muxing mode                 : zlib
    Codec ID                    : S_HDMV/PGS
    Codec ID/Info               : Picture based subtitle format used on BDs/HD-DVDs
    Duration                    : 2 h 18 min
    Bit rate                    : 27.7 kb/s
    Count of elements           : 2926
    Stream size                 : 27.5 MiB (0%)
    Title                       : Sub_Esp [PGS]
    Language                    : Spanish
    Default                     : No
    Forced                      : No

    Text #2
    ID                          : 5
    Format                      : PGS
    Muxing mode                 : zlib
    Codec ID                    : S_HDMV/PGS
    Codec ID/Info               : Picture based subtitle format used on BDs/HD-DVDs
    Duration                    : 2 h 12 min
    Bit rate                    : 34.6 kb/s
    Count of elements           : 3554
    Stream size                 : 32.8 MiB (0%)
    Title                       : Sub_Eng [PGS]
    Language                    : English
    Default                     : No
    Forced                      : No

    Menu
    00:00:00.000                : en:00:00:00.000
    00:08:00.105                : en:00:08:00.105
    00:11:31.983                : en:00:11:31.983
    00:16:57.183                : en:00:16:57.183
    00:21:09.643                : en:00:21:09.643
    00:27:21.265                : en:00:27:21.265
    00:33:03.356                : en:00:33:03.356
    00:38:09.245                : en:00:38:09.245
    00:42:29.130                : en:00:42:29.130
    00:46:41.799                : en:00:46:41.799
    00:54:14.334                : en:00:54:14.334
    00:58:45.480                : en:00:58:45.480
    01:04:55.266                : en:01:04:55.266
    01:10:26.139                : en:01:10:26.139
    01:16:28.250                : en:01:16:28.250
    01:26:44.699                : en:01:26:44.699
    01:32:06.938                : en:01:32:06.938
    01:36:22.443                : en:01:36:22.443
    01:41:53.149                : en:01:41:53.149
    01:49:48.415                : en:01:49:48.415
    01:53:45.610                : en:01:53:45.610
    01:58:52.083                : en:01:58:52.083
    02:07:20.132                : en:02:07:20.132
    02:13:40.095                : en:02:13:40.095

  • Peso: 9.93 GiB

Sinopsis

Descargar Red Sparrow (2018) 4K UHD HDR Latino, Mega, Google Drive. Dominika Egorova (Jennifer Lawrence) es reclutada contra su voluntad para ser un “gorrión”, una seductora adiestrada del servicio de seguridad ruso. Dominika aprende a utilizar su cuerpo como arma, pero lucha por conservar su sentido de la identidad durante el deshumanizador proceso de entrenamiento. Hallando su fuerza en un sistema injusto, se revela como uno de los activos más sólidos del programa. Su primer objetivo es Nate Nash (Joel Edgerton), un funcionario de la CIA que dirige la infiltración más confidencial de la agencia en la inteligencia rusa. Los dos jóvenes agentes caen en una espiral de atracción y engaño que amenaza sus carreras, sus lealtades y la seguridad de sus respectivos países.

Ficha técnica

Video trailer de la película

Enlaces de descarga

Rip de Bluray

Descargar Red Sparrow (2018) 4K UHD HDR Latino




Aportes de DPeliculasHDmega la pass es:dpeliculashdmega.org Aportes de CinemaniaHD la pass es:cinemaniahdd.com
Guardado en : 4K HDR , 4K UHD , Misterio , Suspense

Películas relacionadas

  • The Front Runner (2018) Full 1080p Latino

    2018
    The Front Runner (2018) Full 1080p Latino

    0.0 1h 53m 2018

    Narra la campaña presidencial del senador estadounidense Gary Hart, que tuvo lugar en 1988, momento...

    Director: Jason Reitman

    Género: Drama

    Actores: William Walker

  • Robin Hood orígenes (2018) Full 1080p Latino

    2018
    Robin Hood orígenes (2018) Full 1080p Latino

    0.0 1h 56m 2018

    Cuando el joven Robin Hood (Taron Egerton) regresa a su hogar, endurecido, tras luchar como guerrero...

    Director: Otto Bathurst

    Género: Acción

    Actores: Yasen Atour

  • Kin – El Legado (2018) 4K UHD HDR Latino

    2018
    Kin – El Legado (2018) 4K UHD HDR Latino

    0.0 1h 42m 2018

    Descargar Kin - El Legado (2018) 4K UHD HDR Latino, Mega, Google Drive. Perseguidos por un criminal vengativo...

    Director: Josh Baker

    Género: 4K HDR

    Actores: Zoë Kravitz

  • Megalodón (2018) 4K UHD HDR Latino

    2018
    Megalodón (2018) 4K UHD HDR Latino

    4.5 1h 53m 2018

    Descargar Megalodón (2018) 4K UHD HDR Latino, Mega, Google Drive. Un sumergible de aguas profundas que...

    Director: Monique Knight

    Género: 4K HDR

    Actores: Yoson An

Comentarios 0