Red Sparrow (2018) REMUX 1080p Latino – CMHDD

585 vistas
1 estrella2 estrellas3 estrellas4 estrellas5 estrellas (1 votos, promedio: 5,00 de 5)
Cargando...

Información de Red Sparrow (2018) REMUX 1080p Latino – CMHDD

Datos de la película

  • Calidad: Full 1080p
  • Audio: Español Latino AC3 5.1 BLURAY - Ingles DTS-HD Master 7.1 BLURAY
  • Subtitulos: Español Latino PGS
  • Resolución: 1920x1080p
  • Formato: MKV
  • Codec: H.264
  • Encoder: Dracarys
  • Mediainfo: Clic para Mostrar Datos Ver
  • Format                      : Matroska
    Format version              : Version 4
    File size                   : 26.2 GiB
    Duration                    : 2 h 20 min
    Overall bit rate mode       : Variable
    Overall bit rate            : 26.8 Mb/s
    Movie name                  : Red Sparrow (2018) REMUX 1080p Latino - CMHDD
    Encoded date                : UTC 2021-07-20 03:43:25
    Writing application         : mkvmerge v56.1.0 ('My Friend') 64-bit
    Writing library             : libebml v1.4.2 + libmatroska v1.6.4
    Cover                       : Yes
    Attachments                 : cover.jpg

    Video
    ID                          : 1
    ID in the original source m : 4113 (0x1011)
    Format                      : AVC
    Format/Info                 : Advanced Video Codec
    Format profile              : High@L4.1
    Format settings             : CABAC / 4 Ref Frames
    Format settings, CABAC      : Yes
    Format settings, Reference  : 4 frames
    Codec ID                    : V_MPEG4/ISO/AVC
    Duration                    : 2 h 20 min
    Bit rate mode               : Variable
    Bit rate                    : 21.9 Mb/s
    Maximum bit rate            : 31.0 Mb/s
    Width                       : 1 920 pixels
    Height                      : 1 080 pixels
    Display aspect ratio        : 16:9
    Frame rate mode             : Constant
    Frame rate                  : 23.976 (24000/1001) FPS
    Color space                 : YUV
    Chroma subsampling          : 4:2:0
    Bit depth                   : 8 bits
    Scan type                   : Progressive
    Bits/(Pixel*Frame)          : 0.441
    Stream size                 : 21.5 GiB (82%)
    Default                     : Yes
    Forced                      : No
    Original source medium      : Blu-ray

    Audio #1
    ID                          : 2
    ID in the original source m : 4352 (0x1100)
    Format                      : DTS ES XLL
    Format/Info                 : Digital Theater Systems
    Commercial name             : DTS-HD Master Audio
    Codec ID                    : A_DTS
    Duration                    : 2 h 20 min
    Bit rate mode               : Variable
    Bit rate                    : 4 399 kb/s
    Channel(s)                  : 8 channels
    Channel layout              : C L R Ls Rs LFE Lb Rb
    Sampling rate               : 48.0 kHz
    Frame rate                  : 93.750 FPS (512 SPF)
    Bit depth                   : 24 bits
    Compression mode            : Lossless
    Stream size                 : 4.31 GiB (16%)
    Language                    : English
    Default                     : No
    Forced                      : No
    Original source medium      : Blu-ray

    Audio #2
    ID                          : 3
    ID in the original source m : 4354 (0x1102)
    Format                      : AC-3
    Format/Info                 : Audio Coding 3
    Commercial name             : Dolby Digital
    Codec ID                    : A_AC3
    Duration                    : 2 h 20 min
    Bit rate mode               : Constant
    Bit rate                    : 448 kb/s
    Channel(s)                  : 6 channels
    Channel layout              : L R C LFE Ls Rs
    Sampling rate               : 48.0 kHz
    Frame rate                  : 31.250 FPS (1536 SPF)
    Compression mode            : Lossy
    Stream size                 : 449 MiB (2%)
    Language                    : Spanish
    Service kind                : Complete Main
    Default                     : Yes
    Forced                      : No
    Original source medium      : Blu-ray

    Text #1
    ID                          : 4
    ID in the original source m : 4609 (0x1201)
    Format                      : PGS
    Muxing mode                 : zlib
    Codec ID                    : S_HDMV/PGS
    Codec ID/Info               : Picture based subtitle format used on BDs/HD-DVDs
    Duration                    : 2 h 18 min
    Bit rate                    : 27.8 kb/s
    Count of elements           : 2926
    Stream size                 : 27.6 MiB (0%)
    Language                    : Spanish
    Default                     : No
    Forced                      : No
    Original source medium      : Blu-ray

    Text #2
    ID                          : 5
    ID in the original source m : 4612 (0x1204)
    Format                      : PGS
    Muxing mode                 : zlib
    Codec ID                    : S_HDMV/PGS
    Codec ID/Info               : Picture based subtitle format used on BDs/HD-DVDs
    Duration                    : 2 h 19 min
    Bit rate                    : 65.7 kb/s
    Count of elements           : 4842
    Stream size                 : 65.7 MiB (0%)
    Language                    : Spanish
    Default                     : No
    Forced                      : No
    Original source medium      : Blu-ray

    Menu
    00:00:00.000                : Chapter 01
    00:08:00.104                : Chapter 02
    00:11:31.982                : Chapter 03
    00:16:57.182                : Chapter 04
    00:21:09.643                : Chapter 05
    00:27:21.264                : Chapter 06
    00:33:03.356                : Chapter 07
    00:38:09.245                : Chapter 08
    00:42:29.129                : Chapter 09
    00:46:41.799                : Chapter 10
    00:54:14.334                : Chapter 11
    00:58:45.480                : Chapter 12
    01:04:55.266                : Chapter 13
    01:10:26.138                : Chapter 14
    01:16:28.250                : Chapter 15
    01:26:44.699                : Chapter 16
    01:32:06.938                : Chapter 17
    01:36:22.443                : Chapter 18
    01:41:53.148                : Chapter 19
    01:49:48.415                : Chapter 20
    01:53:45.610                : Chapter 21
    01:58:52.083                : Chapter 22
    02:07:20.132                : Chapter 23
    02:13:40.095                : Chapter 24

  • Peso: 26.2 GiB

Sinopsis

Dominika Egorova (Jennifer Lawrence) es reclutada contra su voluntad para ser un “gorrión”, una seductora adiestrada del servicio de seguridad ruso. Dominika aprende a utilizar su cuerpo como arma, pero lucha por conservar su sentido de la identidad durante el deshumanizador proceso de entrenamiento. Hallando su fuerza en un sistema injusto, se revela como uno de los activos más sólidos del programa. Su primer objetivo es Nate Nash (Joel Edgerton), un funcionario de la CIA que dirige la infiltración más confidencial de la agencia en la inteligencia rusa. Los dos jóvenes agentes caen en una espiral de atracción y engaño que amenaza sus carreras, sus lealtades y la seguridad de sus respectivos países.

Ficha técnica

Video trailer de la película

Enlaces de descarga

Rip de Bluray

Descargar Red Sparrow (2018) REMUX 1080p Latino – CMHDD


Aportes de DPeliculasHDmega la pass es:dpeliculashdmega.org Aportes de CinemaniaHD la pass es:cinemaniahdd.com
Guardado en : Misterio , Remux , Suspenso

Películas relacionadas

  • The Hatred (2017) WEB-DL 1080p Latino

    The Hatred (2017) WEB-DL 1080p Latino

    2017
    The Hatred (2017) WEB-DL 1080p Latino

    5.0 1h 34m 2017

    Cuatro mujeres jóvenes viajan a la nueva casa de campo de su profesor universitario para una escapada...

    Director: Michael G. Kehoe

    Género: Suspenso

    Actores: Tim DeZarn

  • Servants of War (2019) WEB-DL 1080p Latino

    Servants of War (2019) WEB-DL 1080p Latino

    2019
    Servants of War (2019) WEB-DL 1080p Latino

    5.0 1h 38m 2019

    El conocido profesor Professor Jerzy Abramski es asesinado. De su investigación se encarga el inspector...

    Director: Mariusz Gawryś

    Género: Crimen

    Actores: Zbigniew Stryj

Red Sparrow (2018) REMUX 1080p Latino – CMHDD pelicula full hd, Red Sparrow (2018) REMUX 1080p Latino – CMHDD mega latino, Red Sparrow (2018) REMUX 1080p Latino – CMHDD 4k latino, Red Sparrow (2018) REMUX 1080p Latino – CMHDD pelicula completa, Red Sparrow (2018) REMUX 1080p Latino – CMHDD descargar gratis, descargar Red Sparrow (2018) REMUX 1080p Latino – CMHDD pelicula latino, Red Sparrow (2018) REMUX 1080p Latino – CMHDD 1 link mega, Red Sparrow (2018) REMUX 1080p Latino – CMHDD 1 link google drive, Red Sparrow (2018) REMUX 1080p Latino – CMHDD hd 1080p latino.
Comentarios 0