×

¿Problemas para descargar con Mozilla, EDGE? Deshabilita la opción "Abrir vinculos en una pestaña nueva" tal como lo muestra ésta imagen.

La Chica de La Capa Roja (2011) Full 1080p Latino

2.139 vistas

Información de La Chica de La Capa Roja (2011) Full 1080p Latino

caperucita roja a quien tienes miedo 48016 poster

Datos de la película

  • Calidad: Full 1080p
  • Audio: Español Latino AC3 5.1 BLURAY - Ingles DTS 5.1 BLURAY
  • Subtitulos: Español Latino PGS - Ingles PGS
  • Resolución: 1920x1080p
  • Formato: MKV
  • Codec: H.264
  • Encoder: CinefiloCool
  • Mediainfo: Clic para Mostrar Datos Ver
  • La Chica De La Capa Roja (2011) Full 1080p Latino.mkv
    Format                      : Matroska
    Format version              : Version 4
    File size                   : 6.56 GiB
    Duration                    : 1 h 39 min
    Overall bit rate mode       : Variable
    Overall bit rate            : 9 410 kb/s
    Movie name                  : CinemaniaHDD.Net
    Encoded date                : UTC 2018-12-09 06:00:42
    Writing application         : mkvmerge v28.2.0 ('The Awakening') 64-bit
    Writing library             : libebml v1.3.6 + libmatroska v1.4.9

    Video
    ID                          : 1
    Format                      : AVC
    Format/Info                 : Advanced Video Codec
    Format profile              : High@L4.1
    Format settings             : CABAC / 4 Ref Frames
    Format settings, CABAC      : Yes
    Format settings, ReFrames   : 4 frames
    Codec ID                    : V_MPEG4/ISO/AVC
    Duration                    : 1 h 39 min
    Bit rate                    : 4 867 kb/s
    Width                       : 1 920 pixels
    Height                      : 1 080 pixels
    Display aspect ratio        : 16:9
    Frame rate mode             : Constant
    Frame rate                  : 23.976 (24000/1001) FPS
    Color space                 : YUV
    Chroma subsampling          : 4:2:0
    Bit depth                   : 8 bits
    Scan type                   : Progressive
    Bits/(Pixel*Frame)          : 0.098
    Stream size                 : 3.39 GiB (52%)
    Title                       : Full HD1080p [Bluray]
    Writing library             : x264 core 155 r2901 7d0ff22
    Encoding settings           : cabac=1 / ref=4 / deblock=1:0:0 / analyse=0x3:0x133 / me=esa / subme=10 / psy=1 / psy_rd=1.00:0.00 / mixed_ref=1 / me_range=24 / chroma_me=1 / trellis=2 / 8x8dct=1 / cqm=0 / deadzone=21,11 / fast_pskip=1 / chroma_qp_offset=-2 / threads=34 / lookahead_threads=5 / sliced_threads=0 / nr=0 / decimate=1 / interlaced=0 / bluray_compat=0 / constrained_intra=0 / bframes=8 / b_pyramid=2 / b_adapt=2 / b_bias=0 / direct=3 / weightb=1 / open_gop=0 / weightp=2 / keyint=240 / keyint_min=24 / scenecut=40 / intra_refresh=0 / rc_lookahead=60 / rc=crf / mbtree=1 / crf=19.0 / qcomp=0.60 / qpmin=0 / qpmax=69 / qpstep=4 / vbv_maxrate=62500 / vbv_bufsize=78125 / crf_max=0.0 / nal_hrd=none / filler=0 / ip_ratio=1.40 / aq=1:1.00
    Default                     : Yes
    Forced                      : Yes
    Color range                 : Limited
    Color primaries             : BT.709
    Transfer characteristics    : BT.709
    Matrix coefficients         : BT.709

    Audio #1
    ID                          : 2
    Format                      : AC-3
    Format/Info                 : Audio Coding 3
    Commercial name             : Dolby Digital
    Codec ID                    : A_AC3
    Duration                    : 1 h 39 min
    Bit rate mode               : Constant
    Bit rate                    : 640 kb/s
    Channel(s)                  : 6 channels
    Channel layout              : L R C LFE Ls Rs
    Sampling rate               : 48.0 kHz
    Frame rate                  : 31.250 FPS (1536 SPF)
    Bit depth                   : 16 bits
    Compression mode            : Lossy
    Stream size                 : 457 MiB (7%)
    Title                       : AC3_5.1_Bluray_Esp
    Language                    : Spanish
    Service kind                : Complete Main
    Default                     : Yes
    Forced                      : Yes

    Audio #2
    ID                          : 3
    Format                      : DTS XLL
    Format/Info                 : Digital Theater Systems
    Commercial name             : DTS-HD Master Audio
    Codec ID                    : A_DTS
    Duration                    : 1 h 39 min
    Bit rate mode               : Variable
    Bit rate                    : 3 881 kb/s
    Channel(s)                  : 6 channels
    Channel layout              : C L R Ls Rs LFE
    Sampling rate               : 48.0 kHz
    Frame rate                  : 93.750 FPS (512 SPF)
    Bit depth                   : 24 bits
    Compression mode            : Lossless
    Stream size                 : 2.71 GiB (41%)
    Title                       : DTS-MA_5.1_Bluray_Eng
    Language                    : English
    Default                     : No
    Forced                      : No

    Text #1
    ID                          : 4
    Format                      : PGS
    Muxing mode                 : zlib
    Codec ID                    : S_HDMV/PGS
    Codec ID/Info               : Picture based subtitle format used on BDs/HD-DVDs
    Duration                    : 1 h 39 min
    Bit rate                    : 17.5 kb/s
    Count of elements           : 1704
    Stream size                 : 12.4 MiB (0%)
    Title                       : Sub_Esp [PGS]
    Language                    : Spanish
    Default                     : No
    Forced                      : No

    Text #2
    ID                          : 5
    Format                      : PGS
    Muxing mode                 : zlib
    Codec ID                    : S_HDMV/PGS
    Codec ID/Info               : Picture based subtitle format used on BDs/HD-DVDs
    Duration                    : 1 h 37 min
    Bit rate                    : 21.5 kb/s
    Count of elements           : 2014
    Stream size                 : 15.0 MiB (0%)
    Title                       : Sub_Eng [PGS]
    Language                    : English
    Default                     : No
    Forced                      : No

    Menu
    00:00:00.000                : :Chapter 1
    00:08:27.215                : :Chapter 2
    00:15:49.115                : :Chapter 3
    00:24:23.212                : :Chapter 4
    00:33:14.659                : :Chapter 5
    00:40:46.569                : :Chapter 6
    00:49:13.701                : :Chapter 7
    00:59:23.894                : :Chapter 8
    01:09:30.750                : :Chapter 9
    01:18:28.454                : :Chapter 10
    01:29:59.394                : :Chapter 11
    01:35:07.660                : :Chapter 12

  • Peso: 6.56 GiB

Sinopsis

Descargar La Chica de La Capa Roja (2011) Full 1080p Latino, Mega, Google Drive. La joven Valerie se encuentra ante un gran dilema. Ella está enamorada de Peter, un chico algo reservado. Pero sus padres ya han concertado su matrimonio con el poderoso Henry. El miedo a separarse, hace que Valerie y Peter planeen escaparse juntos. Pero su huida se verá truncada cuando se enteran de que la hermana mayor de Valerie ha sido asesinada por el hombre lobo que habita en el oscuro bosque que rodea el pueblo. Para acabar con la bestia de una vez por todas, el pueblo recurre al padre Solomon, un cazador de hombres-lobo, pero éste atemoriza aún más a los vecinos cuando les advierte de que el lobo, durante el día, adquiere forma humana, de modo que podría ser cualquiera de ellos.

Ficha técnica

Video trailer de la película

Enlaces de descarga

Rip de Bluray

Descargar La Chica de La Capa Roja (2011) Full 1080p Latino




Aportes de DPeliculasHDmega la pass es:dpeliculashdmega.org Aportes de CinemaniaHD la pass es:cinemaniahdd.com

Películas relacionadas

descargar La Chica de La Capa Roja (2011) Full 1080p Latino Full 1080p 1080p gratis, La Chica de La Capa Roja (2011) Full 1080p Latino Full 1080p mega 1 link, La Chica de La Capa Roja (2011) Full 1080p Latino Full 1080p pelicula completa, descargar La Chica de La Capa Roja (2011) Full 1080p Latino Full 1080p gratis en mega.

La Chica de La Capa Roja (2011) Full 1080p Latino pelicula full hd, La Chica de La Capa Roja (2011) Full 1080p Latino mega latino, La Chica de La Capa Roja (2011) Full 1080p Latino 4k latino, La Chica de La Capa Roja (2011) Full 1080p Latino pelicula completa, La Chica de La Capa Roja (2011) Full 1080p Latino descargar gratis, descargar La Chica de La Capa Roja (2011) Full 1080p Latino pelicula latino, La Chica de La Capa Roja (2011) Full 1080p Latino 1 link mega, La Chica de La Capa Roja (2011) Full 1080p Latino 1 link google drive, La Chica de La Capa Roja (2011) Full 1080p Latino hd 1080p latino.
Comentarios 0