×

¿Problemas para descargar con Mozilla, EDGE? Deshabilita la opción "Abrir vinculos en una pestaña nueva" tal como lo muestra ésta imagen.

La Espia Roja (2018) 1080p Latino

774 vistas

Información de La Espia Roja (2018) 1080p Latino

Datos de la película

  • Calidad: 1080p
  • Audio: Español Latino AC3 2.0 Capturado - Ingles AC3 5.1 BLURAY
  • Subtitulos: Español Latino SRT - Ingles SRT
  • Resolución: 1920x804p
  • Formato: MKV
  • Codec: H.264
  • Encoder: CinefiloCol
  • Mediainfo: Clic para Mostrar Datos Ver
  • La Espia Roja (2018) 1080p Latino-CMHDD.mkv
    Format                      : Matroska
    Format version              : Version 4
    File size                   : 2.97 GiB
    Duration                    : 1 h 40 min
    Overall bit rate            : 4 215 kb/s
    Movie name                  : Red Joan (2019) CinemaniaHDD.Net
    Encoded date                : UTC 2020-03-23 19:12:05
    Writing application         : mkvmerge v42.0.0 ('Overtime') 64-bit
    Writing library             : libebml v1.3.10 + libmatroska v1.5.2 / Lavf58.20.100
    Attachments                 : CINEMANIAHD.png

    Video
    ID                          : 1
    Format                      : AVC
    Format/Info                 : Advanced Video Codec
    Format profile              : High@L4.1
    Format settings             : CABAC / 5 Ref Frames
    Format settings, CABAC      : Yes
    Format settings, ReFrames   : 5 frames
    Codec ID                    : V_MPEG4/ISO/AVC
    Duration                    : 1 h 40 min
    Bit rate                    : 3 500 kb/s
    Width                       : 1 920 pixels
    Height                      : 804 pixels
    Display aspect ratio        : 2.40:1
    Frame rate mode             : Constant
    Frame rate                  : 24.000 FPS
    Color space                 : YUV
    Chroma subsampling          : 4:2:0
    Bit depth                   : 8 bits
    Scan type                   : Progressive
    Bits/(Pixel*Frame)          : 0.094
    Stream size                 : 2.43 GiB (82%)
    Title                       : HD1080p [Bluray]
    Writing library             : x264 core 157 r2935 545de2f
    Encoding settings           : cabac=1 / ref=5 / deblock=1:-1:-1 / analyse=0x3:0x113 / me=hex / subme=8 / psy=1 / psy_rd=1.00:0.15 / mixed_ref=1 / me_range=16 / chroma_me=1 / trellis=2 / 8x8dct=1 / cqm=0 / deadzone=21,11 / fast_pskip=1 / chroma_qp_offset=-3 / threads=25 / lookahead_threads=4 / sliced_threads=0 / nr=0 / decimate=1 / interlaced=0 / bluray_compat=0 / constrained_intra=0 / bframes=3 / b_pyramid=2 / b_adapt=1 / b_bias=0 / direct=3 / weightb=1 / open_gop=0 / weightp=2 / keyint=240 / keyint_min=24 / scenecut=40 / intra_refresh=0 / rc_lookahead=50 / rc=abr / mbtree=1 / bitrate=3500 / ratetol=1.0 / qcomp=0.60 / qpmin=0 / qpmax=69 / qpstep=4 / vbv_maxrate=62500 / vbv_bufsize=78125 / nal_hrd=none / filler=0 / ip_ratio=1.40 / aq=1:1.00
    Default                     : Yes
    Forced                      : Yes
    Color range                 : Limited
    Color primaries             : BT.709
    Transfer characteristics    : BT.709
    Matrix coefficients         : BT.709

    Audio #1
    ID                          : 2
    Format                      : AC-3
    Format/Info                 : Audio Coding 3
    Commercial name             : Dolby Digital
    Codec ID                    : A_AC3
    Duration                    : 1 h 40 min
    Bit rate mode               : Constant
    Bit rate                    : 320 kb/s
    Channel(s)                  : 2 channels
    Channel layout              : L R
    Sampling rate               : 48.0 kHz
    Frame rate                  : 31.250 FPS (1536 SPF)
    Bit depth                   : 16 bits
    Compression mode            : Lossy
    Delay relative to video     : -5 ms
    Stream size                 : 231 MiB (8%)
    Title                       : AC3_2.0_Capt_Esp
    Language                    : Spanish
    Service kind                : Complete Main
    Default                     : Yes
    Forced                      : Yes

    Audio #2
    ID                          : 3
    Format                      : AC-3
    Format/Info                 : Audio Coding 3
    Commercial name             : Dolby Digital
    Codec ID                    : A_AC3
    Duration                    : 1 h 40 min
    Bit rate mode               : Constant
    Bit rate                    : 448 kb/s
    Channel(s)                  : 6 channels
    Channel layout              : L R C LFE Ls Rs
    Sampling rate               : 48.0 kHz
    Frame rate                  : 31.250 FPS (1536 SPF)
    Bit depth                   : 16 bits
    Compression mode            : Lossy
    Delay relative to video     : -5 ms
    Stream size                 : 323 MiB (11%)
    Title                       : AC3_5.1_Bluray_Eng
    Language                    : English
    Service kind                : Complete Main
    Default                     : No
    Forced                      : No

    Text #1
    ID                          : 4
    Format                      : UTF-8
    Codec ID                    : S_TEXT/UTF8
    Codec ID/Info               : UTF-8 Plain Text
    Duration                    : 1 h 35 min
    Bit rate                    : 1 b/s
    Count of elements           : 22
    Stream size                 : 925 Bytes (0%)
    Title                       : Sub_Forzados
    Language                    : Spanish
    Default                     : Yes
    Forced                      : Yes

    Text #2
    ID                          : 5
    Format                      : UTF-8
    Codec ID                    : S_TEXT/UTF8
    Codec ID/Info               : UTF-8 Plain Text
    Duration                    : 1 h 35 min
    Bit rate                    : 59 b/s
    Count of elements           : 1149
    Stream size                 : 41.3 KiB (0%)
    Title                       : Sub_Esp
    Language                    : Spanish
    Default                     : No
    Forced                      : No

    Text #3
    ID                          : 6
    Format                      : UTF-8
    Codec ID                    : S_TEXT/UTF8
    Codec ID/Info               : UTF-8 Plain Text
    Duration                    : 1 h 35 min
    Bit rate                    : 55 b/s
    Count of elements           : 1256
    Stream size                 : 38.9 KiB (0%)
    Title                       : Sub_Eng
    Language                    : English
    Default                     : No
    Forced                      : No

    Menu
    00:00:00.000                : en:00:00:00.000
    00:06:13.708                : en:00:06:13.708
    00:14:22.167                : en:00:14:22.167
    00:23:30.542                : en:00:23:30.542
    00:31:38.042                : en:00:31:38.042
    00:39:50.875                : en:00:39:50.875
    00:51:48.625                : en:00:51:48.625
    01:01:47.542                : en:01:01:47.542
    01:09:32.250                : en:01:09:32.250
    01:15:04.000                : en:01:15:04.000
    01:23:56.750                : en:01:23:56.750
    01:29:02.333                : en:01:29:02.333

  • Peso: 2.97 GiB

Sinopsis

Descargar La Espia Roja (2018) 1080p Latino. Londres, Inglaterra, mayo de 2000. La pacífica vida de la anciana Joan Stanley se ve repentinamente perturbada cuando es detenida por el Servicio de Inteligencia Británico y acusada de proporcionar información a la Rusia comunista durante los años cuarenta.

Ficha técnica

Video trailer de la película

Enlaces de descarga

Rip de Bluray

Descargar La Espia Roja (2018) 1080p Latino




Aportes de DPeliculasHDmega la pass es:dpeliculashdmega.org Aportes de CinemaniaHD la pass es:cinemaniahdd.com
Guardado en : HD 1080p , Historia , Suspenso

Películas relacionadas

  • La Máquina infernal (2022) WEB-DL 1080p Latino

    La Máquina infernal (2022) WEB-DL 1080p Latino

    2022
    La Máquina infernal (2022) WEB-DL 1080p Latino

    1h 47m 2022

    Descargar La Máquina infernal (2022) WEB-DL 1080p Latino. Un fan obsesivo saca de su escondite al solitario...

    Director: Andrew Hunt

    Género: Suspenso

    Actores: Rocco Salata

  • Borrego: Sal Del Camino (2022) HD 1080p Latino

    Borrego: Sal Del Camino (2022) HD 1080p Latino

    2022
    Borrego: Sal Del Camino (2022) HD 1080p Latino

    1h 42m 2022

    Descargar Borrego: Sal Del Camino (2022) HD 1080p Latino. Una joven botánica se traslada a un pequeño...

    Director: Jesse Harris

    Género: Crimen

    Actores: Olivia Trujillo

  • Borrego: Sal Del Camino (2022) REMUX 1080p Latino

    Borrego: Sal Del Camino (2022) REMUX 1080p Latino

    2022
    Borrego: Sal Del Camino (2022) REMUX 1080p Latino

    1h 42m 2022

    Descargar Borrego: Sal Del Camino (2022) REMUX 1080p Latino. Una joven botánica se traslada a un pequeño...

    Director: Jesse Harris

    Género: Crimen

    Actores: Olivia Trujillo

  • Tren Bala (2022) WEB-DL 4K UHD HDR Latino

    Tren Bala (2022) WEB-DL 4K UHD HDR Latino

    2022
    Tren Bala (2022) WEB-DL 4K UHD HDR Latino

    2h 7m 2022

    Descargar Tren Bala (2022) WEB-DL 4K UHD HDR Latino. El desafortunado asesino "Catarina" está decidido...

    Director: Paul Barry

    Género: 4K HDR

    Actores: Zooey Miyoshi

descargar La Espia Roja (2018) 1080p Latino 1080p 1080p gratis, La Espia Roja (2018) 1080p Latino 1080p mega 1 link, La Espia Roja (2018) 1080p Latino 1080p pelicula completa, descargar La Espia Roja (2018) 1080p Latino 1080p gratis en mega.

La Espia Roja (2018) 1080p Latino pelicula full hd, La Espia Roja (2018) 1080p Latino mega latino, La Espia Roja (2018) 1080p Latino 4k latino, La Espia Roja (2018) 1080p Latino pelicula completa, La Espia Roja (2018) 1080p Latino descargar gratis, descargar La Espia Roja (2018) 1080p Latino pelicula latino, La Espia Roja (2018) 1080p Latino 1 link mega, La Espia Roja (2018) 1080p Latino 1 link google drive, La Espia Roja (2018) 1080p Latino hd 1080p latino.
Comentarios 0