×

¿Problemas para descargar con Mozilla, EDGE? Deshabilita la opción "Abrir vinculos en una pestaña nueva" tal como lo muestra ésta imagen.

Red (2022) REMUX 1080p Latino

332 vistas

Información de Red (2022) REMUX 1080p Latino

Datos de la película

  • Calidad: Full 1080p
  • Audio: Español Latino AC3 5.1 BLURAY - Ingles DTS-HD Master 7.1 BLURAY
  • Subtitulos: Español Latino PGS - Ingles PGS
  • Resolución: 1920x1080p
  • Formato: MKV
  • Codec: H.264
  • Encoder: Melkor
  • Mediainfo: Clic para Mostrar Datos Ver
  • Red (2022) REMUX 1080p Latino.mkv
    Format                      : Matroska
    Format version              : Version 4
    File size                   : 23.2 GiB
    Duration                    : 1 h 39 min
    Overall bit rate mode       : Variable
    Overall bit rate            : 33.3 Mb/s
    Movie name                  : Turning Red (2022) CinemaniaHDD.Net
    Encoded date                : UTC 2022-04-28 20:56:29
    Writing application         : mkvmerge v56.1.0 ('My Friend') 64-bit
    Writing library             : libebml v1.4.2 + libmatroska v1.6.4
    Attachments                 : CINEMANIAHD.png

    Video
    ID                          : 1
    Format                      : AVC
    Format/Info                 : Advanced Video Codec
    Format profile              : High@L4.1
    Format settings             : CABAC / 4 Ref Frames
    Format settings, CABAC      : Yes
    Format settings, Reference  : 4 frames
    Codec ID                    : V_MPEG4/ISO/AVC
    Duration                    : 1 h 39 min
    Bit rate mode               : Variable
    Bit rate                    : 27.9 Mb/s
    Maximum bit rate            : 34.0 Mb/s
    Width                       : 1 920 pixels
    Height                      : 1 080 pixels
    Display aspect ratio        : 16:9
    Frame rate mode             : Constant
    Frame rate                  : 23.976 (23976/1000) FPS
    Original frame rate         : 23.976 (24000/1001) FPS
    Color space                 : YUV
    Chroma subsampling          : 4:2:0
    Bit depth                   : 8 bits
    Scan type                   : Progressive
    Bits/(Pixel*Frame)          : 0.561
    Stream size                 : 19.4 GiB (84%)
    Title                       : REMUX HD1080p [CinemaniaHDD]
    Default                     : Yes
    Forced                      : Yes

    Audio #1
    ID                          : 2
    Format                      : AC-3
    Format/Info                 : Audio Coding 3
    Commercial name             : Dolby Digital
    Codec ID                    : A_AC3
    Duration                    : 1 h 39 min
    Bit rate mode               : Constant
    Bit rate                    : 640 kb/s
    Channel(s)                  : 6 channels
    Channel layout              : L R C LFE Ls Rs
    Sampling rate               : 48.0 kHz
    Frame rate                  : 31.250 FPS (1536 SPF)
    Compression mode            : Lossy
    Stream size                 : 456 MiB (2%)
    Title                       : Español Latino [CinemaniaHDD]
    Language                    : Spanish
    Service kind                : Complete Main
    Default                     : Yes
    Forced                      : Yes

    Audio #2
    ID                          : 3
    Format                      : DTS XLL
    Format/Info                 : Digital Theater Systems
    Commercial name             : DTS-HD Master Audio
    Codec ID                    : A_DTS
    Duration                    : 1 h 39 min
    Bit rate mode               : Variable
    Bit rate                    : 4 686 kb/s
    Channel(s)                  : 8 channels
    Channel layout              : C L R LFE Lb Rb Lss Rss
    Sampling rate               : 48.0 kHz
    Frame rate                  : 93.750 FPS (512 SPF)
    Bit depth                   : 24 bits
    Compression mode            : Lossless
    Stream size                 : 3.26 GiB (14%)
    Title                       : Ingles [CinemaniaHDD]
    Language                    : English
    Default                     : No
    Forced                      : No

    Text #1
    ID                          : 4
    Format                      : PGS
    Muxing mode                 : zlib
    Codec ID                    : S_HDMV/PGS
    Codec ID/Info               : Picture based subtitle format used on BDs/HD-DVDs
    Duration                    : 1 h 38 min
    Bit rate                    : 33.0 kb/s
    Count of elements           : 2712
    Stream size                 : 23.3 MiB (0%)
    Title                       : Español-PGS [CinemaniaHDD]
    Language                    : Spanish
    Default                     : No
    Forced                      : No

    Text #2
    ID                          : 5
    Format                      : PGS
    Muxing mode                 : zlib
    Codec ID                    : S_HDMV/PGS
    Codec ID/Info               : Picture based subtitle format used on BDs/HD-DVDs
    Duration                    : 1 h 38 min
    Bit rate                    : 52.9 kb/s
    Count of elements           : 4280
    Stream size                 : 37.4 MiB (0%)
    Title                       : Ingles-PGS [CinemaniaHDD]
    Language                    : English
    Default                     : No
    Forced                      : No

    Text #3
    ID                          : 6
    Format                      : UTF-8
    Codec ID                    : S_TEXT/UTF8
    Codec ID/Info               : UTF-8 Plain Text
    Duration                    : 1 h 27 min
    Bit rate                    : 0 b/s
    Count of elements           : 18
    Stream size                 : 559 Bytes (0%)
    Title                       : Forzados-SRT [CinemaniaHDD]
    Language                    : Spanish
    Default                     : Yes
    Forced                      : Yes

    Text #4
    ID                          : 7
    Format                      : UTF-8
    Codec ID                    : S_TEXT/UTF8
    Codec ID/Info               : UTF-8 Plain Text
    Duration                    : 1 h 38 min
    Bit rate                    : 64 b/s
    Count of elements           : 1532
    Stream size                 : 46.4 KiB (0%)
    Title                       : Español-SRT [CinemaniaHDD]
    Language                    : Spanish
    Default                     : No
    Forced                      : No

    Menu
    00:00:00.000                : Chapter 01
    00:03:18.323                : Chapter 02
    00:06:09.494                : Chapter 03
    00:09:26.816                : Chapter 04
    00:10:48.481                : Chapter 05
    00:15:19.209                : Chapter 06
    00:16:06.548                : Chapter 07
    00:19:56.111                : Chapter 08
    00:23:50.720                : Chapter 09
    00:26:51.901                : Chapter 10
    00:31:08.783                : Chapter 11
    00:36:04.703                : Chapter 12
    00:37:58.400                : Chapter 13
    00:39:56.018                : Chapter 14
    00:42:44.811                : Chapter 15
    00:45:28.433                : Chapter 16
    00:48:08.426                : Chapter 17
    00:50:08.129                : Chapter 18
    00:52:51.876                : Chapter 19
    00:55:07.887                : Chapter 20
    00:56:27.591                : Chapter 21
    00:59:53.505                : Chapter 22
    01:01:54.001                : Chapter 23
    01:03:31.431                : Chapter 24
    01:05:53.240                : Chapter 25
    01:11:10.223                : Chapter 26
    01:14:42.143                : Chapter 27
    01:18:46.179                : Chapter 28
    01:21:37.350                : Chapter 29
    01:26:53.791                : Chapter 30
    01:28:56.955                : Chapter 31
    01:38:38.328                : Chapter 32

  • Peso: 23.2 GiB

Sinopsis

Descargar Red (2022) REMUX 1080P Latino. Mei Lee, una niña de 13 años un poco rara pero segura de sí misma, se debate entre ser la hija obediente que su madre quiere que sea y el caos propio de la adolescencia. Ming, su protectora y ligeramente exigente madre, no se separa nunca de ella lo que es una situación poco deseable para una adolescente. Y por si los cambios en su vida y en su cuerpo no fueran suficientes, cada vez que se emociona demasiado (lo que le ocurre prácticamente todo el tiempo), se convierte en un panda rojo gigante.

Nota: Disponible Solo Para VIP!!!

Ficha técnica

Video trailer de la película

Enlaces de descarga

Rip de Bluray

Descargar Red (2022) REMUX 1080p Latino


Aportes de DPeliculasHDmega la pass es:dpeliculashdmega.org Aportes de CinemaniaHD la pass es:cinemaniahdd.com
Guardado en : Animación , Comedia , Familia , Fantasía , Remux

Películas relacionadas

descargar Red (2022) REMUX 1080p Latino Full 1080p 1080p gratis, Red (2022) REMUX 1080p Latino Full 1080p mega 1 link, Red (2022) REMUX 1080p Latino Full 1080p pelicula completa, descargar Red (2022) REMUX 1080p Latino Full 1080p gratis en mega.

Red (2022) REMUX 1080p Latino pelicula full hd, Red (2022) REMUX 1080p Latino mega latino, Red (2022) REMUX 1080p Latino 4k latino, Red (2022) REMUX 1080p Latino pelicula completa, Red (2022) REMUX 1080p Latino descargar gratis, descargar Red (2022) REMUX 1080p Latino pelicula latino, Red (2022) REMUX 1080p Latino 1 link mega, Red (2022) REMUX 1080p Latino 1 link google drive, Red (2022) REMUX 1080p Latino hd 1080p latino.
Comentarios 0