×

¿Problemas para descargar con Mozilla, EDGE? Deshabilita la opción "Abrir vinculos en una pestaña nueva" tal como lo muestra ésta imagen.

Real Steel (2011) REMUX 1080p Latino – CMHDD

157 vistas

Información de Real Steel (2011) REMUX 1080p Latino – CMHDD

Datos de la película

  • Calidad: Full 1080p
  • Audio: Español Latino AC3 5.1 BLURAY - Ingles DTS-HD Master 7.1 BLURAY
  • Subtitulos: Español Latino PGS
  • Resolución: 19201080p
  • Formato: MKV
  • Codec: H.264
  • Encoder: Dracarys
  • Mediainfo: Clic para Mostrar Datos Ver
  • Format                      : Matroska
    Format version              : Version 4
    File size                   : 25.6 GiB
    Duration                    : 2 h 6 min
    Overall bit rate mode       : Variable
    Overall bit rate            : 28.9 Mb/s
    Movie name                  : Real Steel (2011) REMUX 1080p Latino - CMHDD
    Encoded date                : UTC 2023-10-06 03:21:41
    Writing application         : mkvmerge v47.0.0 ('Black Flag') 64-bit
    Writing library             : libebml v1.3.10 + libmatroska v1.5.2
    Cover                       : Yes
    Attachments                 : cover.jpg

    Video
    ID                          : 1
    Format                      : AVC
    Format/Info                 : Advanced Video Codec
    Format profile              : High@L4.1
    Format settings             : CABAC / 4 Ref Frames
    Format settings, CABAC      : Yes
    Format settings, Reference  : 4 frames
    Codec ID                    : V_MPEG4/ISO/AVC
    Duration                    : 2 h 6 min
    Bit rate mode               : Variable
    Bit rate                    : 22.1 Mb/s
    Maximum bit rate            : 37.0 Mb/s
    Width                       : 1 920 pixels
    Height                      : 1 080 pixels
    Display aspect ratio        : 16:9
    Frame rate mode             : Constant
    Frame rate                  : 23.976 (24000/1001) FPS
    Color space                 : YUV
    Chroma subsampling          : 4:2:0
    Bit depth                   : 8 bits
    Scan type                   : Progressive
    Bits/(Pixel*Frame)          : 0.445
    Stream size                 : 19.6 GiB (77%)
    Default                     : Yes
    Forced                      : No

    Audio #1
    ID                          : 2
    Format                      : DTS XLL
    Format/Info                 : Digital Theater Systems
    Commercial name             : DTS-HD Master Audio
    Codec ID                    : A_DTS
    Duration                    : 2 h 6 min
    Bit rate mode               : Variable
    Bit rate                    : 6 065 kb/s
    Channel(s)                  : 8 channels
    Channel layout              : C L R LFE Lb Rb Lss Rss
    Sampling rate               : 48.0 kHz
    Frame rate                  : 93.750 FPS (512 SPF)
    Bit depth                   : 24 bits
    Compression mode            : Lossless
    Stream size                 : 5.37 GiB (21%)
    Language                    : English
    Default                     : No
    Forced                      : No

    Audio #2
    ID                          : 3
    Format                      : AC-3
    Format/Info                 : Audio Coding 3
    Commercial name             : Dolby Digital
    Codec ID                    : A_AC3
    Duration                    : 2 h 6 min
    Bit rate mode               : Constant
    Bit rate                    : 640 kb/s
    Channel(s)                  : 6 channels
    Channel layout              : L R C LFE Ls Rs
    Sampling rate               : 48.0 kHz
    Frame rate                  : 31.250 FPS (1536 SPF)
    Compression mode            : Lossy
    Stream size                 : 581 MiB (2%)
    Language                    : Spanish
    Service kind                : Complete Main
    Default                     : Yes
    Forced                      : No

    Text #1
    ID                          : 4
    Format                      : PGS
    Muxing mode                 : zlib
    Codec ID                    : S_HDMV/PGS
    Codec ID/Info               : Picture based subtitle format used on BDs/HD-DVDs
    Duration                    : 1 h 59 min
    Bit rate                    : 34.2 kb/s
    Frame rate                  : 0.408 FPS
    Count of elements           : 2936
    Stream size                 : 29.3 MiB (0%)
    Language                    : Spanish
    Default                     : No
    Forced                      : No

    Text #2
    ID                          : 5
    Format                      : PGS
    Muxing mode                 : zlib
    Codec ID                    : S_HDMV/PGS
    Codec ID/Info               : Picture based subtitle format used on BDs/HD-DVDs
    Duration                    : 2 h 1 min
    Bit rate                    : 61.3 kb/s
    Frame rate                  : 0.543 FPS
    Count of elements           : 3975
    Stream size                 : 53.5 MiB (0%)
    Language                    : Spanish
    Default                     : Yes
    Forced                      : No

    Menu
    00:00:00.000                : en:Capítulo 01
    00:03:00.471                : en:Capítulo 02
    00:10:38.304                : en:Capítulo 03
    00:18:50.546                : en:Capítulo 04
    00:24:29.885                : en:Capítulo 05
    00:34:14.761                : en:Capítulo 06
    00:41:22.354                : en:Capítulo 07
    00:48:46.131                : en:Capítulo 08
    00:52:08.708                : en:Capítulo 09
    00:57:15.014                : en:Capítulo 10
    01:05:01.230                : en:Capítulo 11
    01:12:33.974                : en:Capítulo 12
    01:18:26.993                : en:Capítulo 13
    01:26:28.516                : en:Capítulo 14
    01:32:50.773                : en:Capítulo 15
    01:39:19.703                : en:Capítulo 16
    01:48:22.662                : en:Capítulo 17
    01:52:26.865                : en:Capítulo 18
    01:57:21.868                : en:Capítulo 19
    02:00:50.326                : en:Capítulo 20

     

  • Peso: 25.6 GiB

Sinopsis

En un futuro no muy lejano, el boxeo es robótico: en los combates ya no se enfrentan seres humanos, sino robots humanoides, sofisticadas máquinas diseñadas para luchar. Charlie Kenton, un antiguo púgil que casi llegó a alcanzar la gloria, está pasando una mala racha como promotor de combates. Un día, encuentra un viejo robot desechado y, al comprobar que es un gran boxeador, decide entrenarlo.

Ficha técnica

Video trailer de la película

Enlaces de descarga

Rip de Bluray

Descargar Real Steel (2011) REMUX 1080p Latino – CMHDD




Aportes de DPeliculasHDmega la pass es:dpeliculashdmega.org Aportes de CinemaniaHD la pass es:cinemaniahdd.com Aportes recientes:cinemaniahdd.net
Guardado en : Acción , Ciencia ficción , Drama

Películas relacionadas

descargar Real Steel (2011) REMUX 1080p Latino – CMHDD Full 1080p 1080p gratis, Real Steel (2011) REMUX 1080p Latino – CMHDD Full 1080p mega 1 link, Real Steel (2011) REMUX 1080p Latino – CMHDD Full 1080p pelicula completa, descargar Real Steel (2011) REMUX 1080p Latino – CMHDD Full 1080p gratis en mega.

Real Steel (2011) REMUX 1080p Latino – CMHDD pelicula full hd, Real Steel (2011) REMUX 1080p Latino – CMHDD mega latino, Real Steel (2011) REMUX 1080p Latino – CMHDD 4k latino, Real Steel (2011) REMUX 1080p Latino – CMHDD pelicula completa, Real Steel (2011) REMUX 1080p Latino – CMHDD descargar gratis, descargar Real Steel (2011) REMUX 1080p Latino – CMHDD pelicula latino, Real Steel (2011) REMUX 1080p Latino – CMHDD 1 link mega, Real Steel (2011) REMUX 1080p Latino – CMHDD 1 link google drive, Real Steel (2011) REMUX 1080p Latino – CMHDD hd 1080p latino.
Comentarios 0