×

¿Problemas para descargar con Mozilla, EDGE? Deshabilita la opción "Abrir vinculos en una pestaña nueva" tal como lo muestra ésta imagen.

Ready Player One comienza el juego (2018) REMUX 1080p Latino

2.237 vistas

Información de Ready Player One comienza el juego (2018) REMUX 1080p Latino

ready player one 50990 poster e1554233199239

Datos de la película

  • Calidad: Full 1080p
  • Audio: Español Latino AC3 5.1 BLURAY - DTS-HD Master 7.1 BLURAY
  • Subtitulos: Español Latino SRT- FORZADOS SRT
  • Resolución: 1920x1080p
  • Formato: MKV
  • Codec: H.264
  • Encoder: Dracarys
  • Mediainfo: Clic para Mostrar Datos Ver
  • Format                      : Matroska
    Format version              : Version 4
    File size                   : 25.6 GiB
    Duration                    : 2 h 19 min
    Overall bit rate mode       : Variable
    Overall bit rate            : 26.2 Mb/s
    Movie name                  : CinemaniaHDD.net
    Encoded date                : UTC 2019-03-31 04:32:56
    Writing application         : mkvmerge v30.1.0 ('Forever And More') 64-bit
    Writing library             : libebml v1.3.6 + libmatroska v1.4.9

    Video
    ID                          : 1
    Format                      : AVC
    Format/Info                 : Advanced Video Codec
    Format profile              : High@L4.1
    Format settings             : CABAC / 4 Ref Frames
    Format settings, CABAC      : Yes
    Format settings, ReFrames   : 4 frames
    Codec ID                    : V_MPEG4/ISO/AVC
    Duration                    : 2 h 19 min
    Bit rate mode               : Variable
    Bit rate                    : 21.7 Mb/s
    Maximum bit rate            : 31.0 Mb/s
    Width                       : 1 920 pixels
    Height                      : 1 080 pixels
    Display aspect ratio        : 16:9
    Frame rate mode             : Constant
    Frame rate                  : 23.976 (24000/1001) FPS
    Color space                 : YUV
    Chroma subsampling          : 4:2:0
    Bit depth                   : 8 bits
    Scan type                   : Progressive
    Bits/(Pixel*Frame)          : 0.436
    Stream size                 : 21.2 GiB (83%)
    Language                    : English
    Default                     : No
    Forced                      : No

    Audio #1
    ID                          : 2
    Format                      : AC-3
    Format/Info                 : Audio Coding 3
    Commercial name             : Dolby Digital
    Codec ID                    : A_AC3
    Duration                    : 2 h 19 min
    Bit rate mode               : Constant
    Bit rate                    : 384 kb/s
    Channel(s)                  : 6 channels
    Channel layout              : L R C LFE Ls Rs
    Sampling rate               : 48.0 kHz
    Frame rate                  : 31.250 FPS (1536 SPF)
    Bit depth                   : 16 bits
    Compression mode            : Lossy
    Stream size                 : 384 MiB (1%)
    Language                    : Spanish
    Service kind                : Complete Main
    Default                     : Yes
    Forced                      : No

    Audio #2
    ID                          : 3
    Format                      : DTS XLL
    Format/Info                 : Digital Theater Systems
    Commercial name             : DTS-HD Master Audio
    Codec ID                    : A_DTS
    Duration                    : 2 h 19 min
    Bit rate mode               : Variable
    Bit rate                    : 4 183 kb/s
    Channel(s)                  : 8 channels
    Channel layout              : C L R LFE Lb Rb Lss Rss
    Sampling rate               : 48.0 kHz
    Frame rate                  : 93.750 FPS (512 SPF)
    Bit depth                   : 24 bits
    Compression mode            : Lossless
    Stream size                 : 4.09 GiB (16%)
    Language                    : English
    Default                     : No
    Forced                      : No

    Text #1
    ID                          : 4
    Format                      : UTF-8
    Codec ID                    : S_TEXT/UTF8
    Codec ID/Info               : UTF-8 Plain Text
    Duration                    : 2 h 16 min
    Bit rate                    : 0 b/s
    Count of elements           : 41
    Stream size                 : 1 021 Bytes (0%)
    Title                       : Forzados-SRT
    Language                    : Spanish
    Default                     : Yes
    Forced                      : Yes

    Text #2
    ID                          : 5
    Format                      : UTF-8
    Codec ID                    : S_TEXT/UTF8
    Codec ID/Info               : UTF-8 Plain Text
    Duration                    : 2 h 18 min
    Bit rate                    : 47 b/s
    Count of elements           : 1612
    Stream size                 : 48.8 KiB (0%)
    Title                       : Completos-SRT
    Language                    : Spanish
    Default                     : No
    Forced                      : No

    Text #3
    ID                          : 6
    Format                      : PGS
    Muxing mode                 : zlib
    Codec ID                    : S_HDMV/PGS
    Codec ID/Info               : Picture based subtitle format used on BDs/HD-DVDs
    Duration                    : 2 h 18 min
    Bit rate                    : 28.2 kb/s
    Count of elements           : 3226
    Stream size                 : 28.0 MiB (0%)
    Title                       : Completos-PGS
    Language                    : Spanish
    Default                     : No
    Forced                      : No

    Text #4
    ID                          : 7
    Format                      : PGS
    Muxing mode                 : zlib
    Codec ID                    : S_HDMV/PGS
    Codec ID/Info               : Picture based subtitle format used on BDs/HD-DVDs
    Duration                    : 2 h 16 min
    Bit rate                    : 711 b/s
    Count of elements           : 82
    Stream size                 : 710 KiB (0%)
    Title                       : Forzados-PGS
    Language                    : Spanish
    Default                     : No
    Forced                      : No

    Menu
    00:00:00.000                : en:Chapter 01
    00:10:08.232                : en:Chapter 02
    00:20:18.258                : en:Chapter 03
    00:30:37.627                : en:Chapter 04
    00:40:38.269                : en:Chapter 05
    00:50:08.964                : en:Chapter 06
    01:03:01.778                : en:Chapter 07
    01:11:55.269                : en:Chapter 08
    01:20:14.726                : en:Chapter 09
    01:30:58.327                : en:Chapter 10
    01:43:26.742                : en:Chapter 11
    01:53:02.358                : en:Chapter 12
    02:04:20.161                : en:Chapter 13
    02:09:17.249                : en:Chapter 14

  • Peso: 25.6 GiB

Sinopsis

Año 2044. Wade Watts es un adolescente al que le gusta evadirse del cada vez más sombrío mundo real a través de una popular utopía virtual a escala global llamada Oasis, hasta que su excéntrico y multimillonario creador muere. Antes de morir, ofrece su fortuna como premio a una elaborada búsqueda del tesoro a través de los rincones más inhóspitos de su creación. Será el punto de partida para que Wade se enfrente a jugadores, poderosos enemigos corporativos y otros competidores despiadados dispuestos a hacer lo que sea, tanto dentro de Oasis como del mundo real, para hacerse con el premio.

Ficha técnica

Video trailer de la película

Enlaces de descarga

Rip de Bluray

Descargar Ready Player One comienza el juego (2018) REMUX 1080p Latino




Aportes de DPeliculasHDmega la pass es:dpeliculashdmega.org Aportes de CinemaniaHD la pass es:cinemaniahdd.com
Guardado en : Aventura , Ciencia ficción , Remux

Películas relacionadas

  • Un mundo extraño (2022) HD 1080p Latino

    Un mundo extraño (2022) HD 1080p Latino

    2022
    Un mundo extraño (2022) HD 1080p Latino

    1h 42m 2022

    Descargar Un mundo extraño (2022) HD 1080p Latino. Los Clades son una familia conocida en todo el mundo,...

    Director: Thai Bettistea

    Género: Animación

    Actores: Reed Buck

  • Un mundo extraño (2022) REMUX 1080p Latino

    Un mundo extraño (2022) REMUX 1080p Latino

    2022
    Un mundo extraño (2022) REMUX 1080p Latino

    1h 42m 2022

    Descargar Un mundo extraño (2022) REMUX 1080p. Un viaje a una tierra inexplorada y traicionera en la...

    Director: Thai Bettistea

    Género: Animación

    Actores: Reed Buck

  • Espiritu Libre (2023) NF WEB-DL 1080p Latino

    Espiritu Libre (2023) NF WEB-DL 1080p Latino

    2023
    Espiritu Libre (2023) NF WEB-DL 1080p Latino

    1h 49m 2023

    Descargar Espiritu Libre (2023) NF WEB-DL 1080p Latino. La película se basa en la increíble historia...

    Director: Sarah Spillane

    Género: Aventura

    Actores: Vivien Turner

descargar Ready Player One comienza el juego (2018) REMUX 1080p Latino Full 1080p 1080p gratis, Ready Player One comienza el juego (2018) REMUX 1080p Latino Full 1080p mega 1 link, Ready Player One comienza el juego (2018) REMUX 1080p Latino Full 1080p pelicula completa, descargar Ready Player One comienza el juego (2018) REMUX 1080p Latino Full 1080p gratis en mega.

Ready Player One comienza el juego (2018) REMUX 1080p Latino pelicula full hd, Ready Player One comienza el juego (2018) REMUX 1080p Latino mega latino, Ready Player One comienza el juego (2018) REMUX 1080p Latino 4k latino, Ready Player One comienza el juego (2018) REMUX 1080p Latino pelicula completa, Ready Player One comienza el juego (2018) REMUX 1080p Latino descargar gratis, descargar Ready Player One comienza el juego (2018) REMUX 1080p Latino pelicula latino, Ready Player One comienza el juego (2018) REMUX 1080p Latino 1 link mega, Ready Player One comienza el juego (2018) REMUX 1080p Latino 1 link google drive, Ready Player One comienza el juego (2018) REMUX 1080p Latino hd 1080p latino.
Comentarios 2
  • Maria - 03 abril, 2019

    Muchas gracias ¿sería posible conseguir el REMUX de Wonder Woman y Dracula Untold?
    se que pido mucho pero agradecería alguien me respondiera.

  • Octavio Cesar posadas Martinez - 02 abril, 2019

    Gracias cinemaniahdd por esta version remux de Ready player one, saludos