×

¿Problemas para descargar con Mozilla, EDGE? Deshabilita la opción "Abrir vinculos en una pestaña nueva" tal como lo muestra ésta imagen.

Ready Player One (2018) REMUX 4K HDR Latino – CMHDD

455 vistas

Información de Ready Player One (2018) REMUX 4K HDR Latino – CMHDD

Datos de la película

  • Calidad: 4K HDR
  • Audio: Se especifica abajo de la Sinopsis
  • Subtitulos: Español Latino SRT- FORZADOS SRT
  • Resolución: 3840x2160p
  • Formato: MKV
  • Codec: H.264
  • Encoder: Dracarys
  • Mediainfo: Clic para Mostrar Datos Ver
  • Format                      : Matroska
    Format version              : Version 4
    File size                   : 65.9 GiB
    Duration                    : 2 h 19 min
    Overall bit rate mode       : Variable
    Overall bit rate            : 67.4 Mb/s
    Movie name                  : Ready Player One (2018) REMUX 4K HDR Latino – CMHDD
    Encoded date                : UTC 2024-02-11 01:23:01
    Writing application         : mkvmerge v47.0.0 ('Black Flag') 64-bit
    Writing library             : libebml v1.3.10 + libmatroska v1.5.2

    Video
    ID                          : 1
    Format                      : HEVC
    Format/Info                 : High Efficiency Video Coding
    Format profile              : Main 10@L5.1@High
    HDR format                  : SMPTE ST 2086, HDR10 compatible
    Codec ID                    : V_MPEGH/ISO/HEVC
    Duration                    : 2 h 19 min
    Bit rate                    : 63.0 Mb/s
    Width                       : 3 840 pixels
    Height                      : 2 160 pixels
    Display aspect ratio        : 16:9
    Frame rate mode             : Constant
    Frame rate                  : 23.976 (24000/1001) FPS
    Color space                 : YUV
    Chroma subsampling          : 4:2:0 (Type 2)
    Bit depth                   : 10 bits
    Bits/(Pixel*Frame)          : 0.317
    Stream size                 : 61.6 GiB (93%)
    Language                    : English
    Default                     : Yes
    Forced                      : No
    Color range                 : Limited
    Color primaries             : BT.2020
    Transfer characteristics    : PQ
    Matrix coefficients         : BT.2020 non-constant
    Mastering display color pri : BT.2020
    Mastering display luminance : min: 0.0050 cd/m2, max: 4000 cd/m2
    Maximum Content Light Level : 725 cd/m2
    Maximum Frame-Average Light : 162 cd/m2

    Audio #1
    ID                          : 2
    Format                      : AC-3
    Format/Info                 : Audio Coding 3
    Commercial name             : Dolby Digital
    Codec ID                    : A_AC3
    Duration                    : 2 h 19 min
    Bit rate mode               : Constant
    Bit rate                    : 640 kb/s
    Channel(s)                  : 6 channels
    Channel layout              : L R C LFE Ls Rs
    Sampling rate               : 48.0 kHz
    Frame rate                  : 31.250 FPS (1536 SPF)
    Compression mode            : Lossy
    Stream size                 : 641 MiB (1%)
    Language                    : Spanish
    Service kind                : Complete Main
    Default                     : Yes
    Forced                      : No

    Audio #2
    ID                          : 3
    Format                      : AC-3
    Format/Info                 : Audio Coding 3
    Commercial name             : Dolby Digital
    Format settings             : Dolby Surround EX
    Codec ID                    : A_AC3
    Duration                    : 2 h 19 min
    Bit rate mode               : Constant
    Bit rate                    : 448 kb/s
    Channel(s)                  : 6 channels
    Channel layout              : L R C LFE Ls Rs
    Sampling rate               : 48.0 kHz
    Frame rate                  : 31.250 FPS (1536 SPF)
    Compression mode            : Lossy
    Stream size                 : 448 MiB (1%)
    Language                    : English
    Service kind                : Complete Main
    Default                     : No
    Forced                      : No

    Audio #3
    ID                          : 4
    Format                      : MLP FBA 16-ch
    Format/Info                 : Meridian Lossless Packing FBA with 16-channel presentation
    Commercial name             : Dolby TrueHD with Dolby Atmos
    Codec ID                    : A_TRUEHD
    Duration                    : 2 h 19 min
    Bit rate mode               : Variable
    Bit rate                    : 3 218 kb/s
    Maximum bit rate            : 5 004 kb/s
    Channel(s)                  : 8 channels
    Channel layout              : L R C LFE Ls Rs Lb Rb
    Sampling rate               : 48.0 kHz
    Frame rate                  : 1 200.000 FPS (40 SPF)
    Compression mode            : Lossless
    Stream size                 : 3.15 GiB (5%)
    Language                    : English
    Default                     : No
    Forced                      : No
    Number of dynamic objects   : 11
    Bed channel count           : 1 channel
    Bed channel configuration   : LFE

    Text #1
    ID                          : 5
    Format                      : UTF-8
    Codec ID                    : S_TEXT/UTF8
    Codec ID/Info               : UTF-8 Plain Text
    Duration                    : 2 h 2 min
    Bit rate                    : 1 b/s
    Frame rate                  : 0.008 FPS
    Count of elements           : 56
    Stream size                 : 1.48 KiB (0%)
    Title                       : Forzado
    Language                    : Spanish
    Default                     : Yes
    Forced                      : No

    Text #2
    ID                          : 6
    Format                      : UTF-8
    Codec ID                    : S_TEXT/UTF8
    Codec ID/Info               : UTF-8 Plain Text
    Duration                    : 2 h 10 min
    Bit rate                    : 53 b/s
    Frame rate                  : 0.205 FPS
    Count of elements           : 1612
    Stream size                 : 51.3 KiB (0%)
    Language                    : Spanish
    Default                     : No
    Forced                      : No

    Text #3
    ID                          : 7
    Format                      : PGS
    Muxing mode                 : zlib
    Codec ID                    : S_HDMV/PGS
    Codec ID/Info               : Picture based subtitle format used on BDs/HD-DVDs
    Duration                    : 2 h 16 min
    Bit rate                    : 711 b/s
    Frame rate                  : 0.010 FPS
    Count of elements           : 82
    Stream size                 : 710 KiB (0%)
    Title                       : Forzado
    Language                    : Spanish
    Default                     : No
    Forced                      : No

    Text #4
    ID                          : 8
    Format                      : PGS
    Muxing mode                 : zlib
    Codec ID                    : S_HDMV/PGS
    Codec ID/Info               : Picture based subtitle format used on BDs/HD-DVDs
    Duration                    : 2 h 18 min
    Bit rate                    : 28.2 kb/s
    Frame rate                  : 0.387 FPS
    Count of elements           : 3226
    Stream size                 : 28.0 MiB (0%)
    Language                    : Spanish
    Default                     : No
    Forced                      : No

    Menu
    00:00:00.000                : en:Chapter 1
    00:10:08.232                : en:Chapter 2
    00:20:18.258                : en:Chapter 3
    00:30:37.627                : en:Chapter 4
    00:40:38.269                : en:Chapter 5
    00:50:08.964                : en:Chapter 6
    01:03:01.778                : en:Chapter 7
    01:11:55.269                : en:Chapter 8
    01:20:14.726                : en:Chapter 9
    01:30:58.327                : en:Chapter 10
    01:43:26.742                : en:Chapter 11
    01:53:02.150                : en:Chapter 12
    02:04:20.161                : en:Chapter 13
    02:09:17.249                : en:Chapter 14

     

  • Peso: 65.9 GiB

Sinopsis

Año 2044. Wade Watts es un adolescente al que le gusta evadirse del cada vez más sombrío mundo real a través de una popular utopía virtual a escala global llamada Oasis, hasta que su excéntrico y multimillonario creador muere. Antes de morir, ofrece su fortuna como premio a una elaborada búsqueda del tesoro a través de los rincones más inhóspitos de su creación. Será el punto de partida para que Wade se enfrente a jugadores, poderosos enemigos corporativos y otros competidores despiadados dispuestos a hacer lo que sea, tanto dentro de Oasis como del mundo real, para hacerse con el premio.

 

latino: AC3 5.1  –  Inglés: TrueHD 7.1

Ficha técnica

Video trailer de la película

Enlaces de descarga

Rip de Bluray

Descargar Ready Player One (2018) REMUX 4K HDR Latino – CMHDD




Aportes de DPeliculasHDmega la pass es:dpeliculashdmega.org Aportes de CinemaniaHD la pass es:cinemaniahdd.com Aportes recientes:cinemaniahdd.net
Guardado en : Acción , Aventura , Ciencia ficción

Películas relacionadas

descargar Ready Player One (2018) REMUX 4K HDR Latino – CMHDD 4K HDR 1080p gratis, Ready Player One (2018) REMUX 4K HDR Latino – CMHDD 4K HDR mega 1 link, Ready Player One (2018) REMUX 4K HDR Latino – CMHDD 4K HDR pelicula completa, descargar Ready Player One (2018) REMUX 4K HDR Latino – CMHDD 4K HDR gratis en mega.

Ready Player One (2018) REMUX 4K HDR Latino – CMHDD pelicula full hd, Ready Player One (2018) REMUX 4K HDR Latino – CMHDD mega latino, Ready Player One (2018) REMUX 4K HDR Latino – CMHDD 4k latino, Ready Player One (2018) REMUX 4K HDR Latino – CMHDD pelicula completa, Ready Player One (2018) REMUX 4K HDR Latino – CMHDD descargar gratis, descargar Ready Player One (2018) REMUX 4K HDR Latino – CMHDD pelicula latino, Ready Player One (2018) REMUX 4K HDR Latino – CMHDD 1 link mega, Ready Player One (2018) REMUX 4K HDR Latino – CMHDD 1 link google drive, Ready Player One (2018) REMUX 4K HDR Latino – CMHDD hd 1080p latino.
Comentarios 0