×

¿Problemas para descargar con Mozilla, EDGE? Deshabilita la opción "Abrir vinculos en una pestaña nueva" tal como lo muestra ésta imagen.

Boda Sangrienta (2019) REMUX 1080p Latino

993 vistas

Información de Boda Sangrienta (2019) REMUX 1080p Latino

Datos de la película

  • Calidad: Full 1080p
  • Audio: Español Latino AC3 5.1 BLURAY - Ingles DTS 5.1 BLURAY
  • Subtitulos: Español Latino PGS - Ingles PGS
  • Resolución: 1920x1080p
  • Formato: MKV
  • Codec: H.264
  • Encoder: Cinefilocool
  • Mediainfo: Clic para Mostrar Datos Ver
  • Boda Sangrienta (2019) REMUX 1080p Latino-CMHDD.mkv
    Format                      : Matroska
    Format version              : Version 4
    File size                   : 24.0 GiB
    Duration                    : 1 h 35 min
    Overall bit rate mode       : Variable
    Overall bit rate            : 36.0 Mb/s
    Movie name                  : CinemaniaHDD.Net
    Encoded date                : UTC 2019-11-22 02:28:05
    Writing application         : mkvmerge v38.0.0 ('The Silent Type') 64-bit
    Writing library             : libebml v1.3.9 + libmatroska v1.5.2
    Attachments                 : CINEMANIAHD.png

    Video
    ID                          : 1
    Format                      : AVC
    Format/Info                 : Advanced Video Codec
    Format profile              : High@L4.1
    Format settings             : CABAC / 2 Ref Frames
    Format settings, CABAC      : Yes
    Format settings, ReFrames   : 2 frames
    Codec ID                    : V_MPEG4/ISO/AVC
    Duration                    : 1 h 35 min
    Bit rate mode               : Variable
    Bit rate                    : 31.9 Mb/s
    Width                       : 1 920 pixels
    Height                      : 1 080 pixels
    Display aspect ratio        : 16:9
    Frame rate mode             : Constant
    Frame rate                  : 23.976 (24000/1001) FPS
    Color space                 : YUV
    Chroma subsampling          : 4:2:0
    Bit depth                   : 8 bits
    Scan type                   : Progressive
    Bits/(Pixel*Frame)          : 0.641
    Stream size                 : 21.2 GiB (88%)
    Title                       : Full HD1080p [REMUX]
    Default                     : Yes
    Forced                      : Yes

    Audio #1
    ID                          : 2
    Format                      : AC-3
    Format/Info                 : Audio Coding 3
    Commercial name             : Dolby Digital
    Codec ID                    : A_AC3
    Duration                    : 1 h 35 min
    Bit rate mode               : Constant
    Bit rate                    : 448 kb/s
    Channel(s)                  : 6 channels
    Channel layout              : L R C LFE Ls Rs
    Sampling rate               : 48.0 kHz
    Frame rate                  : 31.250 FPS (1536 SPF)
    Bit depth                   : 16 bits
    Compression mode            : Lossy
    Delay relative to video     : 5 ms
    Stream size                 : 306 MiB (1%)
    Title                       : AC3_5.1_Bluray_Esp
    Language                    : Spanish
    Service kind                : Complete Main
    Default                     : Yes
    Forced                      : Yes

    Audio #2
    ID                          : 3
    Format                      : DTS XLL
    Format/Info                 : Digital Theater Systems
    Commercial name             : DTS-HD Master Audio
    Codec ID                    : A_DTS
    Duration                    : 1 h 35 min
    Bit rate mode               : Variable
    Bit rate                    : 3 698 kb/s
    Channel(s)                  : 6 channels
    Channel layout              : C L R Ls Rs LFE
    Sampling rate               : 48.0 kHz
    Frame rate                  : 93.750 FPS (512 SPF)
    Bit depth                   : 24 bits
    Compression mode            : Lossless
    Stream size                 : 2.46 GiB (10%)
    Title                       : DTS-HD_5.1_Bluray_Eng
    Language                    : English
    Default                     : No
    Forced                      : No

    Text #1
    ID                          : 4
    Format                      : PGS
    Muxing mode                 : zlib
    Codec ID                    : S_HDMV/PGS
    Codec ID/Info               : Picture based subtitle format used on BDs/HD-DVDs
    Duration                    : 1 h 34 min
    Bit rate                    : 1 620 b/s
    Count of elements           : 153
    Stream size                 : 1.10 MiB (0%)
    Title                       : Sub_Forzados [PGS]
    Language                    : Spanish
    Default                     : Yes
    Forced                      : Yes

    Text #2
    ID                          : 5
    Format                      : PGS
    Muxing mode                 : zlib
    Codec ID                    : S_HDMV/PGS
    Codec ID/Info               : Picture based subtitle format used on BDs/HD-DVDs
    Duration                    : 1 h 34 min
    Bit rate                    : 26.8 kb/s
    Count of elements           : 2249
    Stream size                 : 18.1 MiB (0%)
    Title                       : Sub_Esp [PGS]
    Language                    : Spanish
    Default                     : No
    Forced                      : No

    Text #3
    ID                          : 6
    Format                      : PGS
    Muxing mode                 : zlib
    Codec ID                    : S_HDMV/PGS
    Codec ID/Info               : Picture based subtitle format used on BDs/HD-DVDs
    Duration                    : 1 h 35 min
    Bit rate                    : 35.2 kb/s
    Count of elements           : 2726
    Stream size                 : 24.0 MiB (0%)
    Title                       : Sub_Eng [PGS]
    Language                    : English
    Default                     : No
    Forced                      : No

    Text #4
    ID                          : 7
    Format                      : UTF-8
    Codec ID                    : S_TEXT/UTF8
    Codec ID/Info               : UTF-8 Plain Text
    Duration                    : 1 h 28 min
    Bit rate                    : 3 b/s
    Count of elements           : 77
    Stream size                 : 2.05 KiB (0%)
    Title                       : Sub_Forzados
    Language                    : Spanish
    Default                     : No
    Forced                      : No

    Text #5
    ID                          : 8
    Format                      : UTF-8
    Codec ID                    : S_TEXT/UTF8
    Codec ID/Info               : UTF-8 Plain Text
    Duration                    : 1 h 34 min
    Bit rate                    : 43 b/s
    Count of elements           : 1121
    Stream size                 : 30.4 KiB (0%)
    Title                       : Sub_Esp
    Language                    : Spanish
    Default                     : No
    Forced                      : No

    Menu
    00:00:00.000                : :Chapter 01
    00:03:11.816                : :Chapter 02
    00:06:49.534                : :Chapter 03
    00:09:27.775                : :Chapter 04
    00:12:27.037                : :Chapter 05
    00:16:24.149                : :Chapter 06
    00:21:57.941                : :Chapter 07
    00:25:21.061                : :Chapter 08
    00:28:00.261                : :Chapter 09
    00:31:21.921                : :Chapter 10
    00:34:46.459                : :Chapter 11
    00:36:08.624                : :Chapter 12
    00:38:23.759                : :Chapter 13
    00:41:55.930                : :Chapter 14
    00:45:40.362                : :Chapter 15
    00:48:03.046                : :Chapter 16
    00:51:50.440                : :Chapter 17
    00:54:05.075                : :Chapter 18
    00:57:05.088                : :Chapter 19
    00:59:52.714                : :Chapter 20
    01:01:37.902                : :Chapter 21
    01:04:01.671                : :Chapter 22
    01:07:31.422                : :Chapter 23
    01:09:25.828                : :Chapter 24
    01:11:48.304                : :Chapter 25
    01:15:59.721                : :Chapter 26
    01:18:34.584                : :Chapter 27
    01:21:39.644                : :Chapter 28
    01:24:07.292                : :Chapter 29
    01:27:48.012                : :Chapter 30
    01:29:22.315                : :Chapter 31
    01:30:49.152                : :Chapter 32

  • Peso: 24.0 GiB

Sinopsis

Descargar Boda Sangrienta (2019) REMUX 1080p Latino. Durante su noche de bodas, una novia recibe una extraña invitación de la rica y excéntrica familia de su marido. Todo toma un giro siniestro cuando la obligan a participar en una tradición ancestral, que se convierte en un juego letal en el que tendrá que luchar por la superviviencia.Thriller que dirigen Tyler Gillett (V/H/S) y Matt Bettinelli-Olpin (El heredero del diablo). El filme está protagonizado por Samara Weaving (The Babysitter), Andie MacDowell (La última carcajada), Adam Brody (¡Shazam!), Mark O’Brien (Malos tiempos en El Royale) y Henry Czerny (Heridas abiertas).

Ficha técnica

Video trailer de la película

Enlaces de descarga

Rip de Bluray

Descargar Boda Sangrienta (2019) REMUX 1080p Latino




Aportes de DPeliculasHDmega la pass es:dpeliculashdmega.org Aportes de CinemaniaHD la pass es:cinemaniahdd.com
Guardado en : Comedia , Misterio , Remux , Suspenso , Terror

Películas relacionadas

  • Ajin: Semi-Humano (2017) AMZN WEB-DL 1080p Latino

    Ajin: Semi-Humano (2017) AMZN WEB-DL 1080p Latino

    2017
    Ajin: Semi-Humano (2017) AMZN WEB-DL 1080p Latino

    1h 50m 2017

    Descargar Ajin: Semi-Humano (2017) AMZN WEB-DL 1080p Latino. En el manga original, aparece una persona...

    Director: Toru Yamamoto

    Género: Acción

    Actores: Yuki Yamada

  • Ajin: Semi-Humano (2017) REMUX 1080p Latino

    Ajin: Semi-Humano (2017) REMUX 1080p Latino

    2017
    Ajin: Semi-Humano (2017) REMUX 1080p Latino

    1h 50m 2017

    Descargar Ajin: Semi-Humano (2017) REMUX 1080p Latino. En el manga original, aparece una persona inmortal...

    Director: Toru Yamamoto

    Género: Acción

    Actores: Yuki Yamada

  • Zola (2020) HD 1080p Latino

    Zola (2020) HD 1080p Latino

    2020
    Zola (2020) HD 1080p Latino

    1h 26m 2020

    Descargar Zola (2020) HD 1080p Latino. Una camarera accede a acompañar a una bailarina exótica, su...

    Director: Sheri Davani

    Género: Comedia

    Actores: Ts Madison

descargar Boda Sangrienta (2019) REMUX 1080p Latino Full 1080p 1080p gratis, Boda Sangrienta (2019) REMUX 1080p Latino Full 1080p mega 1 link, Boda Sangrienta (2019) REMUX 1080p Latino Full 1080p pelicula completa, descargar Boda Sangrienta (2019) REMUX 1080p Latino Full 1080p gratis en mega.

Boda Sangrienta (2019) REMUX 1080p Latino pelicula full hd, Boda Sangrienta (2019) REMUX 1080p Latino mega latino, Boda Sangrienta (2019) REMUX 1080p Latino 4k latino, Boda Sangrienta (2019) REMUX 1080p Latino pelicula completa, Boda Sangrienta (2019) REMUX 1080p Latino descargar gratis, descargar Boda Sangrienta (2019) REMUX 1080p Latino pelicula latino, Boda Sangrienta (2019) REMUX 1080p Latino 1 link mega, Boda Sangrienta (2019) REMUX 1080p Latino 1 link google drive, Boda Sangrienta (2019) REMUX 1080p Latino hd 1080p latino.
Comentarios 0