×

¿Problemas para descargar con Mozilla, EDGE? Deshabilita la opción "Abrir vinculos en una pestaña nueva" tal como lo muestra ésta imagen.

Boda Sangrienta (2019) Full HD 1080p Latino

2.594 vistas

Información de Boda Sangrienta (2019) Full HD 1080p Latino

Datos de la película

  • Calidad: Full 1080p
  • Audio: Español Latino AC3 5.1 BLURAY - Ingles DTS 5.1 BLURAY
  • Subtitulos: Español Latino PGS - Ingles PGS
  • Resolución: 1920x1080p
  • Formato: MKV
  • Codec: H.264
  • Encoder: CinemaniaHD
  • Mediainfo: Clic para Mostrar Datos Ver
  • Boda Sangrienta (2019) Full HD 1080p Latino-CMHDD.mkv
    Format                      : Matroska
    Format version              : Version 4
    File size                   : 4.55 GiB
    Duration                    : 1 h 35 min
    Overall bit rate            : 6 827 kb/s
    Movie name                  : CinemaniaHDD.Net
    Encoded date                : UTC 2019-11-22 23:54:43
    Writing application         : mkvmerge v38.0.0 ('The Silent Type') 64-bit
    Writing library             : libebml v1.3.9 + libmatroska v1.5.2
    Attachments                 : CINEMANIAHD.png

    Video
    ID                          : 1
    Format                      : AVC
    Format/Info                 : Advanced Video Codec
    Format profile              : High@L4.1
    Format settings             : CABAC / 4 Ref Frames
    Format settings, CABAC      : Yes
    Format settings, ReFrames   : 4 frames
    Codec ID                    : V_MPEG4/ISO/AVC
    Duration                    : 1 h 35 min
    Bit rate                    : 4 840 kb/s
    Width                       : 1 920 pixels
    Height                      : 1 080 pixels
    Display aspect ratio        : 16:9
    Frame rate mode             : Constant
    Frame rate                  : 23.976 (24000/1001) FPS
    Color space                 : YUV
    Chroma subsampling          : 4:2:0
    Bit depth                   : 8 bits
    Scan type                   : Progressive
    Bits/(Pixel*Frame)          : 0.097
    Stream size                 : 3.22 GiB (71%)
    Title                       : Full HD1080p (Bluray)
    Writing library             : x264 core 157 r2935 545de2f
    Encoding settings           : cabac=1 / ref=4 / deblock=1:-1:-1 / analyse=0x3:0x133 / me=tesa / subme=11 / psy=1 / psy_rd=1.00:0.15 / mixed_ref=1 / me_range=24 / chroma_me=1 / trellis=2 / 8x8dct=1 / cqm=0 / deadzone=21,11 / fast_pskip=0 / chroma_qp_offset=-3 / threads=34 / lookahead_threads=8 / sliced_threads=0 / nr=0 / decimate=1 / interlaced=0 / bluray_compat=0 / constrained_intra=0 / bframes=16 / b_pyramid=2 / b_adapt=2 / b_bias=0 / direct=3 / weightb=1 / open_gop=0 / weightp=2 / keyint=240 / keyint_min=24 / scenecut=40 / intra_refresh=0 / rc_lookahead=60 / rc=crf / mbtree=1 / crf=19.0 / qcomp=0.60 / qpmin=0 / qpmax=69 / qpstep=4 / vbv_maxrate=62500 / vbv_bufsize=78125 / crf_max=0.0 / nal_hrd=none / filler=0 / ip_ratio=1.40 / aq=1:1.00
    Default                     : Yes
    Forced                      : Yes
    Color range                 : Limited
    Color primaries             : BT.709
    Transfer characteristics    : BT.709
    Matrix coefficients         : BT.709

    Audio #1
    ID                          : 2
    Format                      : AC-3
    Format/Info                 : Audio Coding 3
    Commercial name             : Dolby Digital
    Codec ID                    : A_AC3
    Duration                    : 1 h 35 min
    Bit rate mode               : Constant
    Bit rate                    : 448 kb/s
    Channel(s)                  : 6 channels
    Channel layout              : L R C LFE Ls Rs
    Sampling rate               : 48.0 kHz
    Frame rate                  : 31.250 FPS (1536 SPF)
    Bit depth                   : 16 bits
    Compression mode            : Lossy
    Delay relative to video     : 5 ms
    Stream size                 : 306 MiB (7%)
    Title                       : AC3_5.1_Bluray_Esp
    Language                    : Spanish
    Service kind                : Complete Main
    Default                     : Yes
    Forced                      : Yes

    Audio #2
    ID                          : 3
    Format                      : DTS
    Format/Info                 : Digital Theater Systems
    Codec ID                    : A_DTS
    Duration                    : 1 h 35 min
    Bit rate mode               : Constant
    Bit rate                    : 1 509 kb/s
    Channel(s)                  : 6 channels
    Channel layout              : C L R Ls Rs LFE
    Sampling rate               : 48.0 kHz
    Frame rate                  : 93.750 FPS (512 SPF)
    Bit depth                   : 24 bits
    Compression mode            : Lossy
    Stream size                 : 1.01 GiB (22%)
    Title                       : DTS_5.1_Bluray_Eng
    Language                    : English
    Default                     : No
    Forced                      : No

    Text #1
    ID                          : 4
    Format                      : PGS
    Muxing mode                 : zlib
    Codec ID                    : S_HDMV/PGS
    Codec ID/Info               : Picture based subtitle format used on BDs/HD-DVDs
    Duration                    : 1 h 34 min
    Bit rate                    : 1 620 b/s
    Count of elements           : 153
    Stream size                 : 1.10 MiB (0%)
    Title                       : Sub_Forzados (PGS)
    Language                    : Spanish
    Default                     : Yes
    Forced                      : Yes

    Text #2
    ID                          : 5
    Format                      : PGS
    Muxing mode                 : zlib
    Codec ID                    : S_HDMV/PGS
    Codec ID/Info               : Picture based subtitle format used on BDs/HD-DVDs
    Duration                    : 1 h 34 min
    Bit rate                    : 26.8 kb/s
    Count of elements           : 2249
    Stream size                 : 18.1 MiB (0%)
    Title                       : Sub_Esp (PGS)
    Language                    : Spanish
    Default                     : No
    Forced                      : No

    Text #3
    ID                          : 6
    Format                      : PGS
    Muxing mode                 : zlib
    Codec ID                    : S_HDMV/PGS
    Codec ID/Info               : Picture based subtitle format used on BDs/HD-DVDs
    Duration                    : 1 h 35 min
    Bit rate                    : 35.2 kb/s
    Count of elements           : 2726
    Stream size                 : 24.0 MiB (1%)
    Title                       : Sub_Eng (PGS)
    Language                    : English
    Default                     : No
    Forced                      : No

    Text #4
    ID                          : 7
    Format                      : UTF-8
    Codec ID                    : S_TEXT/UTF8
    Codec ID/Info               : UTF-8 Plain Text
    Duration                    : 1 h 28 min
    Bit rate                    : 3 b/s
    Count of elements           : 77
    Stream size                 : 2.05 KiB (0%)
    Title                       : Sub_Forzados
    Language                    : Spanish
    Default                     : No
    Forced                      : No

    Text #5
    ID                          : 8
    Format                      : UTF-8
    Codec ID                    : S_TEXT/UTF8
    Codec ID/Info               : UTF-8 Plain Text
    Duration                    : 1 h 34 min
    Bit rate                    : 43 b/s
    Count of elements           : 1121
    Stream size                 : 30.4 KiB (0%)
    Title                       : Sub_Esp
    Language                    : Spanish
    Default                     : No
    Forced                      : No

    Menu
    00:00:00.000                : :Chapter 1
    00:03:11.817                : :Chapter 2
    00:06:49.618                : :Chapter 3
    00:09:27.776                : :Chapter 4
    00:12:27.038                : :Chapter 5
    00:16:24.150                : :Chapter 6
    00:21:57.942                : :Chapter 7
    00:25:21.103                : :Chapter 8
    00:28:00.262                : :Chapter 9
    00:31:21.922                : :Chapter 10
    00:34:46.543                : :Chapter 11
    00:36:08.625                : :Chapter 12
    00:38:23.760                : :Chapter 13
    00:41:56.014                : :Chapter 14
    00:45:40.363                : :Chapter 15
    00:48:03.047                : :Chapter 16
    00:51:50.441                : :Chapter 17
    00:54:05.117                : :Chapter 18
    00:57:05.172                : :Chapter 19
    00:59:52.798                : :Chapter 20
    01:01:37.903                : :Chapter 21
    01:04:01.755                : :Chapter 22
    01:07:31.464                : :Chapter 23
    01:09:25.912                : :Chapter 24
    01:11:48.304                : :Chapter 25
    01:15:59.722                : :Chapter 26
    01:18:34.585                : :Chapter 27
    01:21:39.645                : :Chapter 28
    01:24:07.376                : :Chapter 29
    01:27:48.013                : :Chapter 30
    01:29:22.399                : :Chapter 31
    01:30:49.235                : :Chapter 32

  • Peso: 4.55 GiB

Sinopsis

Descargar Boda Sangrienta (2019) Full HD 1080p Latino. Durante la noche de su boda, una mujer (Weaving) recibe la invitación por parte de la rica y excéntrica familia de su marido para participar en una tradición ancestral que se convierte en un juego letal de supervivencia.

Ficha técnica

Video trailer de la película

Enlaces de descarga

Rip de Bluray

Descargar Boda Sangrienta (2019) Full HD 1080p Latino




Aportes de DPeliculasHDmega la pass es:dpeliculashdmega.org Aportes de CinemaniaHD la pass es:cinemaniahdd.com

Películas relacionadas

  • Borrego: Sal Del Camino (2022) HD 1080p Latino

    Borrego: Sal Del Camino (2022) HD 1080p Latino

    2022
    Borrego: Sal Del Camino (2022) HD 1080p Latino

    1h 42m 2022

    Descargar Borrego: Sal Del Camino (2022) HD 1080p Latino. Una joven botánica se traslada a un pequeño...

    Director: Jesse Harris

    Género: Crimen

    Actores: Olivia Trujillo

  • Borrego: Sal Del Camino (2022) REMUX 1080p Latino

    Borrego: Sal Del Camino (2022) REMUX 1080p Latino

    2022
    Borrego: Sal Del Camino (2022) REMUX 1080p Latino

    1h 42m 2022

    Descargar Borrego: Sal Del Camino (2022) REMUX 1080p Latino. Una joven botánica se traslada a un pequeño...

    Director: Jesse Harris

    Género: Crimen

    Actores: Olivia Trujillo

  • Tren Bala (2022) WEB-DL 4K UHD HDR Latino

    Tren Bala (2022) WEB-DL 4K UHD HDR Latino

    2022
    Tren Bala (2022) WEB-DL 4K UHD HDR Latino

    2h 7m 2022

    Descargar Tren Bala (2022) WEB-DL 4K UHD HDR Latino. El desafortunado asesino "Catarina" está decidido...

    Director: Paul Barry

    Género: 4K HDR

    Actores: Zooey Miyoshi

descargar Boda Sangrienta (2019) Full HD 1080p Latino Full 1080p 1080p gratis, Boda Sangrienta (2019) Full HD 1080p Latino Full 1080p mega 1 link, Boda Sangrienta (2019) Full HD 1080p Latino Full 1080p pelicula completa, descargar Boda Sangrienta (2019) Full HD 1080p Latino Full 1080p gratis en mega.

Boda Sangrienta (2019) Full HD 1080p Latino pelicula full hd, Boda Sangrienta (2019) Full HD 1080p Latino mega latino, Boda Sangrienta (2019) Full HD 1080p Latino 4k latino, Boda Sangrienta (2019) Full HD 1080p Latino pelicula completa, Boda Sangrienta (2019) Full HD 1080p Latino descargar gratis, descargar Boda Sangrienta (2019) Full HD 1080p Latino pelicula latino, Boda Sangrienta (2019) Full HD 1080p Latino 1 link mega, Boda Sangrienta (2019) Full HD 1080p Latino 1 link google drive, Boda Sangrienta (2019) Full HD 1080p Latino hd 1080p latino.
Comentarios 0