×

¿Problemas para descargar con Mozilla, EDGE? Deshabilita la opción "Abrir vinculos en una pestaña nueva" tal como lo muestra ésta imagen.

Raya y el último dragón (2021) REMUX 1080p Latino

272 vistas

Información de Raya y el último dragón (2021) REMUX 1080p Latino

Datos de la película

  • Calidad: Full 1080p
  • Audio: Se especifica abajo de la Sinopsis
  • Subtitulos: Español Latino SRT- FORZADOS SRT
  • Resolución: 1920x1080
  • Formato: MKV
  • Codec: H.264
  • Encoder: cinemaniahdd
  • Mediainfo: Clic para Mostrar Datos Ver
  • Raya and the Last Dragon (2021) REMUX 1080p Latino [CNMNHDD].mkv
    Format                      : Matroska
    Format version              : Version 4
    File size                   : 24.0 GiB
    Duration                    : 1 h 47 min
    Overall bit rate mode       : Variable
    Overall bit rate            : 31.9 Mb/s
    Movie name                  : Raya and the Last Dragon (2021) REMUX - CinemaniaHDD.Net
    Encoded date                : UTC 2021-05-08 17:35:10
    Writing application         : mkvmerge v56.1.0 ('My Friend') 64-bit
    Writing library             : libebml v1.4.2 + libmatroska v1.6.4

    Video
    ID                          : 1
    Format                      : AVC
    Format/Info                 : Advanced Video Codec
    Format profile              : High@L4.1
    Format settings             : CABAC / 4 Ref Frames
    Format settings, CABAC      : Yes
    Format settings, Reference  : 4 frames
    Codec ID                    : V_MPEG4/ISO/AVC
    Duration                    : 1 h 47 min
    Bit rate mode               : Variable
    Bit rate                    : 23.8 Mb/s
    Maximum bit rate            : 29.7 Mb/s
    Width                       : 1 920 pixels
    Height                      : 1 080 pixels
    Display aspect ratio        : 16:9
    Frame rate mode             : Constant
    Frame rate                  : 23.976 (23976/1000) FPS
    Original frame rate         : 23.976 (24000/1001) FPS
    Color space                 : YUV
    Chroma subsampling          : 4:2:0
    Bit depth                   : 8 bits
    Scan type                   : Progressive
    Bits/(Pixel*Frame)          : 0.479
    Stream size                 : 17.9 GiB (75%)
    Title                       : CinemaniaHDD
    Default                     : Yes
    Forced                      : No

    Audio #1
    ID                          : 2
    Format                      : AC-3
    Format/Info                 : Audio Coding 3
    Commercial name             : Dolby Digital
    Codec ID                    : A_AC3
    Duration                    : 1 h 47 min
    Bit rate mode               : Constant
    Bit rate                    : 640 kb/s
    Channel(s)                  : 6 channels
    Channel layout              : L R C LFE Ls Rs
    Sampling rate               : 48.0 kHz
    Frame rate                  : 31.250 FPS (1536 SPF)
    Compression mode            : Lossy
    Stream size                 : 492 MiB (2%)
    Title                       : Español latino [CinemaniaHDD]
    Language                    : Spanish
    Service kind                : Complete Main
    Default                     : Yes
    Forced                      : No

    Audio #2
    ID                          : 3
    Format                      : DTS XLL
    Format/Info                 : Digital Theater Systems
    Commercial name             : DTS-HD Master Audio
    Codec ID                    : A_DTS
    Duration                    : 1 h 47 min
    Bit rate mode               : Variable
    Bit rate                    : 5 285 kb/s
    Channel(s)                  : 8 channels
    Channel layout              : C L R LFE Lb Rb Lss Rss
    Sampling rate               : 48.0 kHz
    Frame rate                  : 93.750 FPS (512 SPF)
    Bit depth                   : 24 bits
    Compression mode            : Lossless
    Stream size                 : 3.97 GiB (17%)
    Title                       : Inglés - DTS-HD [CinemaniaHDD]
    Language                    : English
    Default                     : No
    Forced                      : No

    Audio #3
    ID                          : 4
    Format                      : DTS
    Format/Info                 : Digital Theater Systems
    Codec ID                    : A_DTS
    Duration                    : 1 h 47 min
    Bit rate mode               : Constant
    Bit rate                    : 1 509 kb/s
    Channel(s)                  : 6 channels
    Channel layout              : C L R Ls Rs LFE
    Sampling rate               : 48.0 kHz
    Frame rate                  : 93.750 FPS (512 SPF)
    Bit depth                   : 24 bits
    Compression mode            : Lossy
    Stream size                 : 1.13 GiB (5%)
    Title                       : Inglés - DTS [CinemaniaHDD]
    Language                    : English
    Default                     : No
    Forced                      : No

    Audio #4
    ID                          : 5
    Format                      : AC-3
    Format/Info                 : Audio Coding 3
    Commercial name             : Dolby Digital
    Codec ID                    : A_AC3
    Duration                    : 1 h 47 min
    Bit rate mode               : Constant
    Bit rate                    : 640 kb/s
    Channel(s)                  : 6 channels
    Channel layout              : L R C LFE Ls Rs
    Sampling rate               : 48.0 kHz
    Frame rate                  : 31.250 FPS (1536 SPF)
    Compression mode            : Lossy
    Stream size                 : 492 MiB (2%)
    Title                       : Inglés [CinemaniaHDD]
    Language                    : English
    Service kind                : Complete Main
    Default                     : No
    Forced                      : No

    Text #1
    ID                          : 6
    Format                      : UTF-8
    Codec ID                    : S_TEXT/UTF8
    Codec ID/Info               : UTF-8 Plain Text
    Duration                    : 1 h 37 min
    Bit rate                    : 53 b/s
    Count of elements           : 1052
    Stream size                 : 38.1 KiB (0%)
    Title                       : Español latino [CinemaniaHDD]
    Language                    : Spanish
    Default                     : No
    Forced                      : No

    Text #2
    ID                          : 7
    Format                      : PGS
    Muxing mode                 : zlib
    Codec ID                    : S_HDMV/PGS
    Codec ID/Info               : Picture based subtitle format used on BDs/HD-DVDs
    Duration                    : 1 h 45 min
    Bit rate                    : 28.6 kb/s
    Count of elements           : 2326
    Stream size                 : 21.7 MiB (0%)
    Title                       : Español latino [CinemaniaHDD]
    Language                    : Spanish
    Default                     : No
    Forced                      : No

    Text #3
    ID                          : 8
    Format                      : UTF-8
    Codec ID                    : S_TEXT/UTF8
    Codec ID/Info               : UTF-8 Plain Text
    Duration                    : 1 h 37 min
    Bit rate                    : 68 b/s
    Count of elements           : 1919
    Stream size                 : 49.0 KiB (0%)
    Title                       : Inglés [CinemaniaHDD]
    Language                    : English
    Default                     : No
    Forced                      : No

    Text #4
    ID                          : 9
    Format                      : PGS
    Muxing mode                 : zlib
    Codec ID                    : S_HDMV/PGS
    Codec ID/Info               : Picture based subtitle format used on BDs/HD-DVDs
    Duration                    : 1 h 46 min
    Bit rate                    : 44.7 kb/s
    Count of elements           : 3840
    Stream size                 : 34.0 MiB (0%)
    Title                       : Inglés [CinemaniaHDD]
    Language                    : English
    Default                     : No
    Forced                      : No

    Menu
    00:00:00.000                : Capítulo 01
    00:08:08.696                : Capítulo 02
    00:11:00.159                : Capítulo 03
    00:15:16.415                : Capítulo 04
    00:20:15.339                : Capítulo 05
    00:28:28.748                : Capítulo 06
    00:35:56.904                : Capítulo 07
    00:37:43.260                : Capítulo 08
    00:41:12.595                : Capítulo 09
    00:43:19.388                : Capítulo 10
    00:48:56.391                : Capítulo 11
    00:51:31.505                : Capítulo 12
    00:53:13.732                : Capítulo 13
    00:55:21.067                : Capítulo 14
    00:59:08.044                : Capítulo 15
    01:01:57.380                : Capítulo 16
    01:04:34.578                : Capítulo 17
    01:06:47.294                : Capítulo 18
    01:11:21.819                : Capítulo 19
    01:15:51.213                : Capítulo 20
    01:18:41.007                : Capítulo 21
    01:28:26.217                : Capítulo 22
    01:35:08.285                : Capítulo 23

     

  • Peso: 24.0 GiB

Sinopsis

Raya, una niña de gran espíritu aventurero, se embarca en la búsqueda del último dragón del mundo con el objetivo de devolver el equilibrio a Kumandra, un lejano y recóndito territorio habitado por una civilización milenaria.

Español Latino AC3 5.1 BD – Ingles DT-HD 7.1 + DTS Core 5.1  + AC3 5.1 BD

Ficha técnica

Video trailer de la película

Enlaces de descarga

Rip de Bluray

Descargar Raya y el último dragón (2021) REMUX 1080p Latino


Aportes de DPeliculasHDmega la pass es:dpeliculashdmega.org Aportes de CinemaniaHD la pass es:cinemaniahdd.com

Películas relacionadas

descargar Raya y el último dragón (2021) REMUX 1080p Latino Full 1080p 1080p gratis, Raya y el último dragón (2021) REMUX 1080p Latino Full 1080p mega 1 link, Raya y el último dragón (2021) REMUX 1080p Latino Full 1080p pelicula completa, descargar Raya y el último dragón (2021) REMUX 1080p Latino Full 1080p gratis en mega.

Raya y el último dragón (2021) REMUX 1080p Latino pelicula full hd, Raya y el último dragón (2021) REMUX 1080p Latino mega latino, Raya y el último dragón (2021) REMUX 1080p Latino 4k latino, Raya y el último dragón (2021) REMUX 1080p Latino pelicula completa, Raya y el último dragón (2021) REMUX 1080p Latino descargar gratis, descargar Raya y el último dragón (2021) REMUX 1080p Latino pelicula latino, Raya y el último dragón (2021) REMUX 1080p Latino 1 link mega, Raya y el último dragón (2021) REMUX 1080p Latino 1 link google drive, Raya y el último dragón (2021) REMUX 1080p Latino hd 1080p latino.
Comentarios 0