×

¿Problemas para descargar con Mozilla, EDGE? Deshabilita la opción "Abrir vinculos en una pestaña nueva" tal como lo muestra ésta imagen.

Raya y el último dragón (2021) HD 1080p Latino

289 vistas

Información de Raya y el último dragón (2021) HD 1080p Latino

Datos de la película

  • Calidad: 1080p
  • Audio: Español Latino AC3 5.1 BLURAY - Ingles AC3 5.1 BLURAY
  • Subtitulos: Español Latino SRT- FORZADOS SRT
  • Resolución: 1920x1080
  • Formato: MKV
  • Codec: H.264
  • Encoder: cinemaniahdd
  • Mediainfo: Clic para Mostrar Datos Ver
  • Raya and the Last Dragon (2021) HD 1080p Latino [CNMNHDD].mkv
    Format                      : Matroska
    Format version              : Version 4
    File size                   : 3.28 GiB
    Duration                    : 1 h 47 min
    Overall bit rate            : 4 371 kb/s
    Movie name                  : Raya and the Last Dragon (2021) HD - CinemaniaHDD.Net
    Encoded date                : UTC 2021-05-08 17:29:42
    Writing application         : mkvmerge v56.1.0 ('My Friend') 64-bit
    Writing library             : libebml v1.4.2 + libmatroska v1.6.4

    Video
    ID                          : 1
    Format                      : AVC
    Format/Info                 : Advanced Video Codec
    Format profile              : Main@L4
    Format settings             : CABAC / 5 Ref Frames
    Format settings, CABAC      : Yes
    Format settings, Reference  : 5 frames
    Codec ID                    : V_MPEG4/ISO/AVC
    Duration                    : 1 h 47 min
    Bit rate                    : 3 500 kb/s
    Width                       : 1 920 pixels
    Height                      : 804 pixels
    Display aspect ratio        : 2.40:1
    Frame rate mode             : Constant
    Frame rate                  : 23.976 (23976/1000) FPS
    Color space                 : YUV
    Chroma subsampling          : 4:2:0
    Bit depth                   : 8 bits
    Scan type                   : Progressive
    Bits/(Pixel*Frame)          : 0.095
    Stream size                 : 2.61 GiB (79%)
    Title                       : CinemaniaHDD
    Writing library             : x264 core 157 r2935 545de2f
    Encoding settings           : cabac=1 / ref=5 / deblock=1:0:0 / analyse=0x1:0x111 / me=hex / subme=8 / psy=1 / psy_rd=1.00:0.00 / mixed_ref=1 / me_range=16 / chroma_me=1 / trellis=2 / 8x8dct=0 / cqm=0 / deadzone=21,11 / fast_pskip=1 / chroma_qp_offset=-2 / threads=24 / lookahead_threads=4 / sliced_threads=0 / nr=0 / decimate=1 / interlaced=0 / bluray_compat=0 / constrained_intra=0 / bframes=3 / b_pyramid=2 / b_adapt=1 / b_bias=0 / direct=3 / weightb=1 / open_gop=0 / weightp=2 / keyint=240 / keyint_min=24 / scenecut=40 / intra_refresh=0 / rc_lookahead=50 / rc=abr / mbtree=1 / bitrate=3500 / ratetol=1.0 / qcomp=0.60 / qpmin=0 / qpmax=69 / qpstep=4 / vbv_maxrate=20000 / vbv_bufsize=25000 / nal_hrd=none / filler=0 / ip_ratio=1.40 / aq=1:1.00
    Default                     : Yes
    Forced                      : No
    Color range                 : Limited
    Color primaries             : BT.709
    Transfer characteristics    : BT.709
    Matrix coefficients         : BT.709

    Audio #1
    ID                          : 2
    Format                      : AC-3
    Format/Info                 : Audio Coding 3
    Commercial name             : Dolby Digital
    Codec ID                    : A_AC3
    Duration                    : 1 h 47 min
    Bit rate mode               : Constant
    Bit rate                    : 448 kb/s
    Channel(s)                  : 6 channels
    Channel layout              : L R C LFE Ls Rs
    Sampling rate               : 48.0 kHz
    Frame rate                  : 31.250 FPS (1536 SPF)
    Compression mode            : Lossy
    Delay relative to video     : -5 ms
    Stream size                 : 344 MiB (10%)
    Title                       : Español latino [CinemaniaHDD]
    Language                    : Spanish
    Service kind                : Complete Main
    Default                     : Yes
    Forced                      : No

    Audio #2
    ID                          : 3
    Format                      : AC-3
    Format/Info                 : Audio Coding 3
    Commercial name             : Dolby Digital
    Codec ID                    : A_AC3
    Duration                    : 1 h 47 min
    Bit rate mode               : Constant
    Bit rate                    : 448 kb/s
    Channel(s)                  : 6 channels
    Channel layout              : L R C LFE Ls Rs
    Sampling rate               : 48.0 kHz
    Frame rate                  : 31.250 FPS (1536 SPF)
    Compression mode            : Lossy
    Delay relative to video     : -5 ms
    Stream size                 : 344 MiB (10%)
    Title                       : Inglés [CinemaniaHDD]
    Language                    : English
    Service kind                : Complete Main
    Default                     : No
    Forced                      : No

    Text #1
    ID                          : 4
    Format                      : UTF-8
    Codec ID                    : S_TEXT/UTF8
    Codec ID/Info               : UTF-8 Plain Text
    Duration                    : 1 h 37 min
    Bit rate                    : 53 b/s
    Count of elements           : 1052
    Stream size                 : 38.1 KiB (0%)
    Title                       : Español latino [CinemaniaHDD]
    Language                    : Spanish
    Default                     : No
    Forced                      : No

    Text #2
    ID                          : 5
    Format                      : UTF-8
    Codec ID                    : S_TEXT/UTF8
    Codec ID/Info               : UTF-8 Plain Text
    Duration                    : 1 h 37 min
    Bit rate                    : 68 b/s
    Count of elements           : 1919
    Stream size                 : 49.0 KiB (0%)
    Title                       : Inglés [CinemaniaHDD]
    Language                    : English
    Default                     : No
    Forced                      : No

    Menu
    00:00:00.000                : :Capítulo 01
    00:08:08.713                : :Capítulo 02
    00:11:00.176                : :Capítulo 03
    00:15:16.432                : :Capítulo 04
    00:20:15.386                : :Capítulo 05
    00:28:28.824                : :Capítulo 06
    00:35:57.006                : :Capítulo 07
    00:37:43.278                : :Capítulo 08
    00:41:12.612                : :Capítulo 09
    00:43:19.489                : :Capítulo 10
    00:48:56.409                : :Capítulo 11
    00:51:31.543                : :Capítulo 12
    00:53:13.729                : :Capítulo 13
    00:55:21.064                : :Capítulo 14
    00:59:08.095                : :Capítulo 15
    01:01:57.431                : :Capítulo 16
    01:04:34.588                : :Capítulo 17
    01:06:47.346                : :Capítulo 18
    01:11:21.878                : :Capítulo 19
    01:15:51.231                : :Capítulo 20
    01:18:41.067                : :Capítulo 21
    01:28:26.235                : :Capítulo 22
    01:35:08.353                : :Capítulo 23

     

  • Peso: 3.28 GiB

Sinopsis

Raya, una niña de gran espíritu aventurero, se embarca en la búsqueda del último dragón del mundo con el objetivo de devolver el equilibrio a Kumandra, un lejano y recóndito territorio habitado por una civilización milenaria.

Ficha técnica

Video trailer de la película

Enlaces de descarga

Rip de Bluray

Descargar Raya y el último dragón (2021) HD 1080p Latino




Aportes de DPeliculasHDmega la pass es:dpeliculashdmega.org Aportes de CinemaniaHD la pass es:cinemaniahdd.com

Películas relacionadas

descargar Raya y el último dragón (2021) HD 1080p Latino 1080p 1080p gratis, Raya y el último dragón (2021) HD 1080p Latino 1080p mega 1 link, Raya y el último dragón (2021) HD 1080p Latino 1080p pelicula completa, descargar Raya y el último dragón (2021) HD 1080p Latino 1080p gratis en mega.

Raya y el último dragón (2021) HD 1080p Latino pelicula full hd, Raya y el último dragón (2021) HD 1080p Latino mega latino, Raya y el último dragón (2021) HD 1080p Latino 4k latino, Raya y el último dragón (2021) HD 1080p Latino pelicula completa, Raya y el último dragón (2021) HD 1080p Latino descargar gratis, descargar Raya y el último dragón (2021) HD 1080p Latino pelicula latino, Raya y el último dragón (2021) HD 1080p Latino 1 link mega, Raya y el último dragón (2021) HD 1080p Latino 1 link google drive, Raya y el último dragón (2021) HD 1080p Latino hd 1080p latino.
Comentarios 0