×

¿Problemas para descargar con Mozilla, EDGE? Deshabilita la opción "Abrir vinculos en una pestaña nueva" tal como lo muestra ésta imagen.

Raya and the Last Dragon (2021) REMUX 4K HDR Latino – CMHDD

403 vistas

Información de Raya and the Last Dragon (2021) REMUX 4K HDR Latino – CMHDD

Datos de la película

  • Calidad: 4K HDR
  • Audio: Español Latino AC3 2.0
  • Subtitulos: Español Latino PGS
  • Resolución: 3840x2160p
  • Formato: MKV
  • Codec: H.264
  • Encoder: Dracarys
  • Mediainfo: Clic para Mostrar Datos Ver
  • Format                      : Matroska
    Format version              : Version 4
    File size                   : 45.7 GiB
    Duration                    : 1 h 47 min
    Overall bit rate mode       : Variable
    Overall bit rate            : 60.9 Mb/s
    Movie name                  : Raya and the Last Dragon (2021) REMUX 4K HDR Latino - CMHDD
    Encoded date                : UTC 2021-05-17 03:29:54
    Writing application         : mkvmerge v56.1.0 ('My Friend') 64-bit
    Writing library             : libebml v1.4.2 + libmatroska v1.6.4
    Cover                       : Yes
    Attachments                 : cover.jpg

    Video
    ID                          : 1
    Format                      : HEVC
    Format/Info                 : High Efficiency Video Coding
    Format profile              : Main 10@L5.1@High
    HDR format                  : SMPTE ST 2086, HDR10 compatible
    Codec ID                    : V_MPEGH/ISO/HEVC
    Duration                    : 1 h 47 min
    Bit rate                    : 51.3 Mb/s
    Width                       : 3 840 pixels
    Height                      : 2 160 pixels
    Display aspect ratio        : 16:9
    Frame rate mode             : Constant
    Frame rate                  : 23.976 (23976/1000) FPS
    Original frame rate         : 23.976 (24000/1001) FPS
    Color space                 : YUV
    Chroma subsampling          : 4:2:0 (Type 2)
    Bit depth                   : 10 bits
    Bits/(Pixel*Frame)          : 0.258
    Stream size                 : 38.5 GiB (84%)
    Writing library             : ATEME Titan File 3.9.6 (4.9.6.2)        
    Default                     : Yes
    Forced                      : No
    Color range                 : Limited
    Color primaries             : BT.2020
    Transfer characteristics    : PQ
    Matrix coefficients         : BT.2020 non-constant
    Mastering display color pri : Display P3
    Mastering display luminance : min: 0.0050 cd/m2, max: 1000 cd/m2

    Audio #1
    ID                          : 2
    Format                      : MLP FBA 16-ch
    Format/Info                 : Meridian Lossless Packing FBA with 16-channel presentation
    Commercial name             : Dolby TrueHD with Dolby Atmos
    Codec ID                    : A_TRUEHD
    Duration                    : 1 h 47 min
    Bit rate mode               : Variable
    Bit rate                    : 8 469 kb/s
    Maximum bit rate            : 11.2 Mb/s
    Channel(s)                  : 8 channels
    Channel layout              : L R C LFE Ls Rs Lb Rb
    Sampling rate               : 48.0 kHz
    Frame rate                  : 1 200.000 FPS (40 SPF)
    Compression mode            : Lossless
    Stream size                 : 6.36 GiB (14%)
    Language                    : English
    Default                     : No
    Forced                      : No
    Number of dynamic objects   : 13
    Bed channel count           : 1 channel
    Bed channel configuration   : LFE

    Audio #2
    ID                          : 3
    Format                      : E-AC-3
    Format/Info                 : Enhanced AC-3
    Commercial name             : Dolby Digital Plus
    Format profile              : Blu-ray Disc
    Codec ID                    : A_EAC3
    Duration                    : 1 h 47 min
    Bit rate mode               : Constant
    Bit rate                    : 1 024 kb/s
    Channel(s)                  : 8 channels
    Channel layout              : L R C LFE Ls Rs Lb Rb
    Sampling rate               : 48.0 kHz
    Frame rate                  : 31.250 FPS (1536 SPF)
    Compression mode            : Lossy
    Stream size                 : 787 MiB (2%)
    Language                    : Spanish
    Service kind                : Complete Main
    Default                     : Yes
    Forced                      : No

    Text
    ID                          : 4
    Format                      : PGS
    Muxing mode                 : zlib
    Codec ID                    : S_HDMV/PGS
    Codec ID/Info               : Picture based subtitle format used on BDs/HD-DVDs
    Duration                    : 1 h 45 min
    Bit rate                    : 28.5 kb/s
    Count of elements           : 2322
    Stream size                 : 21.6 MiB (0%)
    Language                    : Spanish
    Default                     : No
    Forced                      : No

    Menu
    00:00:00.000                : Chapter 01
    00:08:08.696                : Chapter 02
    00:11:00.159                : Chapter 03
    00:15:16.415                : Chapter 04
    00:20:15.339                : Chapter 05
    00:28:28.748                : Chapter 06
    00:35:56.904                : Chapter 07
    00:37:43.260                : Chapter 08
    00:41:12.595                : Chapter 09
    00:43:19.388                : Chapter 10
    00:48:56.391                : Chapter 11
    00:51:31.504                : Chapter 12
    00:53:13.732                : Chapter 13
    00:55:21.067                : Chapter 14
    00:59:08.044                : Chapter 15
    01:01:57.380                : Chapter 16
    01:04:34.578                : Chapter 17
    01:06:47.294                : Chapter 18
    01:11:21.819                : Chapter 19
    01:15:51.213                : Chapter 20
    01:18:41.007                : Chapter 21
    01:28:26.217                : Chapter 22
    01:35:08.285                : Chapter 23
     

  • Peso: 45.7 GiB

Sinopsis

Raya, una niña de gran espíritu aventurero, se embarca en la búsqueda del último dragón del mundo con el objetivo de devolver el equilibrio a Kumandra, un lejano y recóndito territorio habitado por una civilización milenaria.

 

Latino: E-AC3 7.1  –  Ingles: TrueHD 7.1

Ficha técnica

Video trailer de la película

Enlaces de descarga

Rip de Bluray

Descargar Raya and the Last Dragon (2021) REMUX 4K HDR Latino – CMHDD


Aportes de DPeliculasHDmega la pass es:dpeliculashdmega.org Aportes de CinemaniaHD la pass es:cinemaniahdd.com

Películas relacionadas

descargar Raya and the Last Dragon (2021) REMUX 4K HDR Latino – CMHDD 4K HDR 1080p gratis, Raya and the Last Dragon (2021) REMUX 4K HDR Latino – CMHDD 4K HDR mega 1 link, Raya and the Last Dragon (2021) REMUX 4K HDR Latino – CMHDD 4K HDR pelicula completa, descargar Raya and the Last Dragon (2021) REMUX 4K HDR Latino – CMHDD 4K HDR gratis en mega.

Raya and the Last Dragon (2021) REMUX 4K HDR Latino – CMHDD pelicula full hd, Raya and the Last Dragon (2021) REMUX 4K HDR Latino – CMHDD mega latino, Raya and the Last Dragon (2021) REMUX 4K HDR Latino – CMHDD 4k latino, Raya and the Last Dragon (2021) REMUX 4K HDR Latino – CMHDD pelicula completa, Raya and the Last Dragon (2021) REMUX 4K HDR Latino – CMHDD descargar gratis, descargar Raya and the Last Dragon (2021) REMUX 4K HDR Latino – CMHDD pelicula latino, Raya and the Last Dragon (2021) REMUX 4K HDR Latino – CMHDD 1 link mega, Raya and the Last Dragon (2021) REMUX 4K HDR Latino – CMHDD 1 link google drive, Raya and the Last Dragon (2021) REMUX 4K HDR Latino – CMHDD hd 1080p latino.
Comentarios 0