Rascacielos: Rescate en las alturas (2018) Full 1080p Latino

6.029 vistas
1 estrella2 estrellas3 estrellas4 estrellas5 estrellas (14 votos, promedio: 4,64 de 5)
Cargando…

Información de Rascacielos: Rescate en las alturas (2018) Full 1080p Latino

Datos de la película

  • Calidad: Full 1080p
  • Audio: Español Latino AC3 5.1 BLURAY - Ingles AC3 5.1 BLURAY
  • Subtitulos: Español Latino PGS - Ingles PGS
  • Resolución: 1920x1080p
  • Formato: MKV
  • Codec: H.264
  • Encoder: Dracarys
  • Mediainfo: Clic para Mostrar Datos Ver
  • Format                                   : Matroska
    Format version                           : Version 4 / Version 2
    File size                                : 3.88 GiB
    Duration                                 : 1 h 42 min
    Overall bit rate                         : 5 418 kb/s
    Movie name                               : CinemaniaHDD.net
    Encoded date                             : UTC 2018-10-03 00:25:50 / UTC 2018-10-02T19:03:01Z
    Writing application                      : mkvmerge v15.0.0 ('Duel with the Devil') 64-bit
    Writing library                          : libebml v1.3.5 + libmatroska v1.4.5 / Lavf57.7.2

    Video
    ID                                       : 1
    Format                                   : AVC
    Format/Info                              : Advanced Video Codec
    Format profile                           : [email protected]
    Format settings                          : CABAC / 4 Ref Frames
    Format settings, CABAC                   : Yes
    Format settings, RefFrames               : 4 frames
    Codec ID                                 : V_MPEG4/ISO/AVC
    Duration                                 : 1 h 42 min
    Bit rate                                 : 4 414 kb/s
    Width                                    : 1 920 pixels
    Height                                   : 1 080 pixels
    Display aspect ratio                     : 16:9
    Frame rate mode                          : Constant
    Frame rate                               : 23.976 (24000/1001) FPS
    Color space                              : YUV
    Chroma subsampling                       : 4:2:0
    Bit depth                                : 8 bits
    Scan type                                : Progressive
    Bits/(Pixel*Frame)                       : 0.089
    Stream size                              : 3.16 GiB (81%)
    Writing library                          : x264 core 148 r2708 86b7198
    Encoding settings                        : cabac=1 / ref=4 / deblock=1:0:0 / analyse=0x3:0x133 / me=esa / subme=10 / psy=1 / psy_rd=1.00:0.00 / mixed_ref=1 / me_range=24 / chroma_me=1 / trellis=2 / 8x8dct=1 / cqm=0 / deadzone=21,11 / fast_pskip=1 / chroma_qp_offset=-2 / threads=34 / lookahead_threads=5 / sliced_threads=0 / nr=0 / decimate=1 / interlaced=0 / bluray_compat=0 / constrained_intra=0 / bframes=8 / b_pyramid=2 / b_adapt=2 / b_bias=0 / direct=3 / weightb=1 / open_gop=0 / weightp=2 / keyint=240 / keyint_min=24 / scenecut=40 / intra_refresh=0 / rc_lookahead=60 / rc=crf / mbtree=1 / crf=20.0 / qcomp=0.60 / qpmin=0 / qpmax=69 / qpstep=4 / vbv_maxrate=62500 / vbv_bufsize=78125 / crf_max=0.0 / nal_hrd=none / filler=0 / ip_ratio=1.40 / aq=1:1.00
    Default                                  : Yes
    Forced                                   : No
    Color range                              : Limited
    Color primaries                          : BT.709
    Transfer characteristics                 : BT.709
    Matrix coefficients                      : BT.709
    Statistics Tags Issue                    : mkvmerge v15.0.0 ('Duel with the Devil') 64-bit 2018-10-03 00:25:50 / mkvmerge v15.0.0 ('Duel with the Devil') 64-bit 2018-10-03 00:25:50 / UTC 2018-10-02T19:03:01Z
    FromStats_BitRate                        : 4500385
    FromStats_Duration                       : 01:42:24.138000000
    FromStats_FrameCount                     : 147312
    FromStats_StreamSize                     : 3456373808

    Audio #1
    ID                                       : 2
    Format                                   : AC-3
    Format/Info                              : Audio Coding 3
    Format settings, Endianness              : Big
    Codec ID                                 : A_EAC3
    Duration                                 : 1 h 42 min
    Bit rate mode                            : Constant
    Bit rate                                 : 448 kb/s
    Channel(s)                               : 6 channels
    Channel positions                        : Front: L C R, Side: L R, LFE
    Sampling rate                            : 48.0 kHz
    Frame rate                               : 31.250 FPS (1536 SPF)
    Bit depth                                : 16 bits
    Compression mode                         : Lossy
    Stream size                              : 328 MiB (8%)
    Language                                 : Spanish
    Service kind                             : Complete Main
    Default                                  : Yes
    Forced                                   : No
    Statistics Tags Issue                    : mkvmerge v15.0.0 ('Duel with the Devil') 64-bit 2018-10-03 00:25:50 / mkvmerge v15.0.0 ('Duel with the Devil') 64-bit 2018-10-03 00:25:50 / UTC 2018-10-02T19:03:01Z
    FromStats_BitRate                        : 448000
    FromStats_Duration                       : 01:42:24.160000000
    FromStats_FrameCount                     : 192005
    FromStats_StreamSize                     : 344072960

    Audio #2
    ID                                       : 3
    Format                                   : AC-3
    Format/Info                              : Audio Coding 3
    Format settings, Endianness              : Big
    Codec ID                                 : A_AC3
    Duration                                 : 1 h 42 min
    Bit rate mode                            : Constant
    Bit rate                                 : 448 kb/s
    Channel(s)                               : 6 channels
    Channel positions                        : Front: L C R, Side: L R, LFE
    Sampling rate                            : 48.0 kHz
    Frame rate                               : 31.250 FPS (1536 SPF)
    Bit depth                                : 16 bits
    Compression mode                         : Lossy
    Delay relative to video                  : 15 ms
    Stream size                              : 328 MiB (8%)
    Language                                 : English
    Service kind                             : Complete Main
    Default                                  : No
    Forced                                   : No
    Statistics Tags Issue                    : mkvmerge v15.0.0 ('Duel with the Devil') 64-bit 2018-10-03 00:25:50 / mkvmerge v15.0.0 ('Duel with the Devil') 64-bit 2018-10-03 00:25:50 / UTC 2018-10-02T19:03:01Z
    FromStats_BitRate                        : 448000
    FromStats_Duration                       : 01:42:24.128000000
    FromStats_FrameCount                     : 192004
    FromStats_StreamSize                     : 344071168

    Text #1
    ID                                       : 4
    Format                                   : PGS
    Muxing mode                              : zlib
    Codec ID                                 : S_HDMV/PGS
    Codec ID/Info                            : Picture based subtitle format used on BDs/HD-DVDs
    Language                                 : English
    Default                                  : No
    Forced                                   : No
    Statistics Tags Issue                    : mkvmerge v15.0.0 ('Duel with the Devil') 64-bit 2018-10-03 00:25:50 / mkvmerge v15.0.0 ('Duel with the Devil') 64-bit 2018-10-03 00:25:50 / UTC 2018-10-02T19:03:01Z
    FromStats_BitRate                        : 38482
    FromStats_Duration                       : 01:32:04.686000000
    FromStats_FrameCount                     : 2647
    FromStats_StreamSize                     : 26575717

    Text #2
    ID                                       : 5
    Format                                   : PGS
    Muxing mode                              : zlib
    Codec ID                                 : S_HDMV/PGS
    Codec ID/Info                            : Picture based subtitle format used on BDs/HD-DVDs
    Language                                 : Spanish
    Default                                  : No
    Forced                                   : No
    Statistics Tags Issue                    : mkvmerge v15.0.0 ('Duel with the Devil') 64-bit 2018-10-03 00:25:50 / mkvmerge v15.0.0 ('Duel with the Devil') 64-bit 2018-10-03 00:25:50 / UTC 2018-10-02T19:03:01Z
    FromStats_BitRate                        : 24896
    FromStats_Duration                       : 01:41:23.828000000
    FromStats_FrameCount                     : 2238
    FromStats_StreamSize                     : 18933518

    Text #3
    ID                                       : 6
    Format                                   : PGS
    Muxing mode                              : zlib
    Codec ID                                 : S_HDMV/PGS
    Codec ID/Info                            : Picture based subtitle format used on BDs/HD-DVDs
    Title                                    : Forzados
    Language                                 : Spanish
    Default                                  : Yes
    Forced                                   : Yes
    Statistics Tags Issue                    : mkvmerge v15.0.0 ('Duel with the Devil') 64-bit 2018-10-03 00:25:50 / mkvmerge v15.0.0 ('Duel with the Devil') 64-bit 2018-10-03 00:25:50 / UTC 2018-10-02T19:03:01Z
    FromStats_BitRate                        : 1742
    FromStats_Duration                       : 01:41:23.828000000
    FromStats_FrameCount                     : 135
    FromStats_StreamSize                     : 1325423

    Menu
    00:00:00.000                             : :Chapter 1
    00:04:24.139                             : :Chapter 2
    00:10:07.357                             : :Chapter 3
    00:16:09.927                             : :Chapter 4
    00:21:12.605                             : :Chapter 5
    00:25:34.992                             : :Chapter 6
    00:30:11.727                             : :Chapter 7
    00:35:23.913                             : :Chapter 8
    00:40:07.113                             : :Chapter 9
    00:47:18.961                             : :Chapter 10
    00:52:10.252                             : :Chapter 11
    00:58:16.785                             : :Chapter 12
    01:02:02.969                             : :Chapter 13
    01:05:29.634                             : :Chapter 14
    01:09:59.404                             : :Chapter 15
    01:14:31.425                             : :Chapter 16
    01:17:18.259                             : :Chapter 17
    01:23:32.424                             : :Chapter 18
    01:27:46.219                             : :Chapter 19
    01:32:54.152                             : :Chapter 20

  • Peso: 3.88 GiB

Sinopsis

Rascacielos: Rescate en las alturas mega hd la mejor calidad en peliculas gratis Will Ford es un antiguo líder del Equipo de Rescate de Rehenes del FBI y veterano de los marines que ahora trabaja como asesor de seguridad de los rascacielos. En una misión en China, Ford se encontrará con que el edificio más alto y seguro del mundo de repente se incendia. Mientras encuentra a los responsables del incendio, tendrá que intentar salvar a su familia atrapada dentro del rascacielos.

Ficha técnica

Video trailer de la película

Enlaces de descarga

Rip de Bluray

Descargar Rascacielos: Rescate en las alturas (2018) Full 1080p Latino




Aportes de DPeliculasHDmega la pass es:dpeliculashdmega.org Aportes de CinemaniaHD la pass es:cinemaniahdd.com

Películas relacionadas

Comentarios 11
  • Orlando - 06 octubre, 2018

    Muy buena película… gracias!!!
    Podrían subir la trilogía Millenium… pelis!!!!

  • BuddyWolf - 05 octubre, 2018

    Por favor revisar enlaces de mega

  • BuddyWolf - 05 octubre, 2018

    Enlaces de mega inactivos

  • Johnny - 05 octubre, 2018

    Enlaces para mega Están desactivado!! Revisar por favor

  • Jonathanleppe - 05 octubre, 2018

    Enlaces para mega Están desactivado!! Revisar por favor!!

  • Johnny - 05 octubre, 2018

    Enlaces mega muertos!!

  • Jonathan Leppe - 05 octubre, 2018

    Enlace de mega no valido!! Revisar porfis!!

  • buddy - 05 octubre, 2018

    Hola!! elance de descarga por mega no es valido!!! por favor revisar!! Gracias!!!!!!!!!!!!!!!!

  • Buddy - 05 octubre, 2018

    Holis!!!! Holis!!!!!!!!!! Elance de mega no es valido!!!!! por favor revisar!!! gracias!!!!

  • ocpgaiden - 03 octubre, 2018

    Gracias por Rescate en las Alturas, saludos