×

¿Problemas para descargar con Mozilla, EDGE? Deshabilita la opción "Abrir vinculos en una pestaña nueva" tal como lo muestra ésta imagen.

Rápidos y furiosos X (2023) HD 1080p Latino

279 vistas

Información de Rápidos y furiosos X (2023) HD 1080p Latino

Datos de la película

  • Calidad: 1080p
  • Audio: Español Latino AC3 5.1 WEB-DL - Ingles AC3 5.1 BLURAY
  • Subtitulos: Español Latino SRT- FORZADOS SRT
  • Resolución: 1920x804p
  • Formato: MKV
  • Codec: H.264
  • Encoder: Melkor | Mteam
  • Mediainfo: Clic para Mostrar Datos Ver
  • Rapido Y Furioso 10 (2023) HD 1080p Latino.mkv
    Format                      : Matroska
    Format version              : Version 4
    File size                   : 4.26 GiB
    Duration                    : 2 h 20 min
    Overall bit rate            : 4 331 kb/s
    Movie name                  : Fast X (2023) CinemaniaHDD.Net
    Encoded date                : UTC 2023-08-01 03:48:11
    Writing application         : mkvmerge v56.1.0 ('My Friend') 64-bit
    Writing library             : libebml v1.4.2 + libmatroska v1.6.4
    Attachments                 : CINEMANIAHD.png / CINEMANIAHD.png
    Site                        : CinemaniaHDD.Net
    Uploader                    : Melkor

    Video
    ID                          : 1
    Format                      : AVC
    Format/Info                 : Advanced Video Codec
    Format profile              : High@L4.1
    Format settings             : CABAC / 5 Ref Frames
    Format settings, CABAC      : Yes
    Format settings, Reference  : 5 frames
    Codec ID                    : V_MPEG4/ISO/AVC
    Duration                    : 2 h 20 min
    Bit rate                    : 3 500 kb/s
    Width                       : 1 920 pixels
    Height                      : 804 pixels
    Display aspect ratio        : 2.40:1
    Frame rate mode             : Constant
    Frame rate                  : 23.976 (24000/1001) FPS
    Color space                 : YUV
    Chroma subsampling          : 4:2:0
    Bit depth                   : 8 bits
    Scan type                   : Progressive
    Bits/(Pixel*Frame)          : 0.095
    Stream size                 : 3.44 GiB (81%)
    Title                       : HD1080p [CinemaniaHDD]
    Writing library             : x264 core 163 r3059 b684ebe0
    Encoding settings           : cabac=1 / ref=5 / deblock=1:-1:-1 / analyse=0x3:0x133 / me=umh / subme=9 / psy=1 / psy_rd=1.00:0.15 / mixed_ref=1 / me_range=16 / chroma_me=1 / trellis=2 / 8x8dct=1 / cqm=0 / deadzone=21,11 / fast_pskip=1 / chroma_qp_offset=-3 / threads=24 / lookahead_threads=2 / sliced_threads=0 / nr=0 / decimate=1 / interlaced=0 / bluray_compat=0 / constrained_intra=0 / bframes=3 / b_pyramid=2 / b_adapt=2 / b_bias=0 / direct=3 / weightb=1 / open_gop=0 / weightp=2 / keyint=240 / keyint_min=24 / scenecut=40 / intra_refresh=0 / rc_lookahead=60 / rc=abr / mbtree=1 / bitrate=3500 / ratetol=1.0 / qcomp=0.60 / qpmin=0 / qpmax=69 / qpstep=4 / vbv_maxrate=62500 / vbv_bufsize=78125 / nal_hrd=none / filler=0 / ip_ratio=1.40 / aq=1:1.00
    Default                     : Yes
    Forced                      : Yes
    Color range                 : Limited
    Color primaries             : BT.709
    Transfer characteristics    : BT.709
    Matrix coefficients         : BT.709

    Audio #1
    ID                          : 2
    Format                      : AC-3
    Format/Info                 : Audio Coding 3
    Commercial name             : Dolby Digital
    Codec ID                    : A_AC3
    Duration                    : 2 h 20 min
    Bit rate mode               : Constant
    Bit rate                    : 384 kb/s
    Channel(s)                  : 6 channels
    Channel layout              : L R C LFE Ls Rs
    Sampling rate               : 48.0 kHz
    Frame rate                  : 31.250 FPS (1536 SPF)
    Compression mode            : Lossy
    Delay relative to video     : 21 ms
    Stream size                 : 387 MiB (9%)
    Title                       : Español Latino [CinemaniaHDD]
    Language                    : Spanish
    Service kind                : Complete Main
    Default                     : Yes
    Forced                      : Yes

    Audio #2
    ID                          : 3
    Format                      : AC-3
    Format/Info                 : Audio Coding 3
    Commercial name             : Dolby Digital
    Codec ID                    : A_AC3
    Duration                    : 2 h 20 min
    Bit rate mode               : Constant
    Bit rate                    : 448 kb/s
    Channel(s)                  : 6 channels
    Channel layout              : L R C LFE Ls Rs
    Sampling rate               : 48.0 kHz
    Frame rate                  : 31.250 FPS (1536 SPF)
    Compression mode            : Lossy
    Delay relative to video     : -5 ms
    Stream size                 : 451 MiB (10%)
    Title                       : Ingles [CinemaniaHDD]
    Language                    : English
    Service kind                : Complete Main
    Default                     : No
    Forced                      : No

    Text #1
    ID                          : 4
    Format                      : UTF-8
    Codec ID                    : S_TEXT/UTF8
    Codec ID/Info               : UTF-8 Plain Text
    Duration                    : 2 h 9 min
    Bit rate                    : 0 b/s
    Count of elements           : 40
    Stream size                 : 767 Bytes (0%)
    Title                       : Forzados-SRT [CinemaniaHDD]
    Language                    : Spanish
    Default                     : Yes
    Forced                      : Yes

    Text #2
    ID                          : 5
    Format                      : UTF-8
    Codec ID                    : S_TEXT/UTF8
    Codec ID/Info               : UTF-8 Plain Text
    Duration                    : 2 h 20 min
    Bit rate                    : 44 b/s
    Count of elements           : 1554
    Stream size                 : 45.6 KiB (0%)
    Title                       : Español-SRT [CinemaniaHDD]
    Language                    : Spanish
    Default                     : No
    Forced                      : No

    Menu
    00:00:00.000                : Chapter 01
    00:06:30.056                : Chapter 02
    00:15:47.238                : Chapter 03
    00:23:09.555                : Chapter 04
    00:32:54.890                : Chapter 05
    00:40:21.002                : Chapter 06
    00:46:43.676                : Chapter 07
    00:50:51.048                : Chapter 08
    00:57:37.412                : Chapter 09
    01:07:34.550                : Chapter 10
    01:14:01.312                : Chapter 11
    01:19:54.707                : Chapter 12
    01:28:26.051                : Chapter 13
    01:32:36.050                : Chapter 14
    01:38:26.484                : Chapter 15
    01:45:49.969                : Chapter 16
    01:49:08.459                : Chapter 17
    01:53:51.283                : Chapter 18
    02:00:17.710                : Chapter 19
    02:07:25.304                : Chapter 20
    Rapido Y Furioso 10 (2023) BDRip 1080p Latino[CMHDD].mkv
    File size                   : 16.8 GiB
    Duration                    : 2 h 20 min
    Movie name                  : Fast X (2023) CinemaniaHDD.Net
    Site                        : CinemaniaHDD.Net
    Uploader                    : Melkor
    Video
    Format                      : AVC x264 High@L4.1
    Bit rate                    : 12.9 Mb/s
    Width                       : 1 920 pixels
    Height                      : 804 pixels
    Frame rate                  : 23.976 (24000/1001) FPS
    Audio #1
    Format                      : AC-3
    Bit rate                    : 384 kb/s
    Channel(s)                  : 6 channels
    Sampling rate               : 48.0 kHz
    Title                       : Español Latino [CinemaniaHDD]
    Language                    : Spanish
    Audio #2
    Format                      : MLP FBA 16-ch
    Bit rate                    : 3 205 kb/s
    Channel(s)                  : 8 channels
    Sampling rate               : 48.0 kHz
    Title                       : Ingles [CinemaniaHDD]
    Language                    : English
    Audio #3
    Format                      : AC-3
    Bit rate                    : 448 kb/s
    Channel(s)                  : 6 channels
    Sampling rate               : 48.0 kHz
    Title                       : Ingles-AC3 [CinemaniaHDD]
    Language                    : English
    Subtitulos: Yes (SRT)
    Chapters: Yes (Numbers)

  • Peso: 16.8 GiB | 4.26 GiB

Sinopsis

Descargar Rápidos y furiosos X (2023) HD 1080p Latino. Durante numerosas misiones más que imposibles, Dom Toretto y su familia han sido capaces de ser más listos, de tener más valor y de ir más rápido que cualquier enemigo que se cruzara con ellos. Pero ahora tendrán que enfrentarse al oponente más letal que jamás hayan conocido: Un terrible peligro que resurge del pasado, que se mueve por una sangrienta sed de venganza y que está dispuesto a destrozar a la familia y destruir para siempre todo lo que a Dom le importa.

Nota: Version Ligera & Pesada!!!

Ficha técnica

Video trailer de la película

Enlaces de descarga

Rip de Bluray

Descargar Rápidos y furiosos X (2023) HD 1080p Latino




Aportes de DPeliculasHDmega la pass es:dpeliculashdmega.org Aportes de CinemaniaHD la pass es:cinemaniahdd.com Aportes recientes:cinemaniahdd.net
Guardado en : Acción , Crimen , HD 1080p , Suspenso

Películas relacionadas

descargar Rápidos y furiosos X (2023) HD 1080p Latino 1080p 1080p gratis, Rápidos y furiosos X (2023) HD 1080p Latino 1080p mega 1 link, Rápidos y furiosos X (2023) HD 1080p Latino 1080p pelicula completa, descargar Rápidos y furiosos X (2023) HD 1080p Latino 1080p gratis en mega.

Rápidos y furiosos X (2023) HD 1080p Latino pelicula full hd, Rápidos y furiosos X (2023) HD 1080p Latino mega latino, Rápidos y furiosos X (2023) HD 1080p Latino 4k latino, Rápidos y furiosos X (2023) HD 1080p Latino pelicula completa, Rápidos y furiosos X (2023) HD 1080p Latino descargar gratis, descargar Rápidos y furiosos X (2023) HD 1080p Latino pelicula latino, Rápidos y furiosos X (2023) HD 1080p Latino 1 link mega, Rápidos y furiosos X (2023) HD 1080p Latino 1 link google drive, Rápidos y furiosos X (2023) HD 1080p Latino hd 1080p latino.
Comentarios 0