×

¿Problemas para descargar con Mozilla, EDGE? Deshabilita la opción "Abrir vinculos en una pestaña nueva" tal como lo muestra ésta imagen.

Rápidos y furiosos X (2023) WEB-DL 4K UHD HDR/DV Latino

419 vistas

Información de Rápidos y furiosos X (2023) WEB-DL 4K UHD HDR/DV Latino

Datos de la película

  • Calidad: WEBDL
  • Audio: Español Latino AC3 5.1 WEB-DL - Ingles AC3 5.1 WEB-DL
  • Subtitulos: Español Latino SRT- FORZADOS SRT
  • Resolución: 3840x2160p
  • Formato: MKV
  • Codec: HEVC
  • Encoder: Melkor
  • Mediainfo: Clic para Mostrar Datos Ver
  • Rapidos y Furiosos X (2023) WEB UHD HDR-DV Latino.mkv
    Format                      : Matroska
    Format version              : Version 4
    File size                   : 25.4 GiB
    Duration                    : 2 h 20 min
    Overall bit rate            : 25.8 Mb/s
    Movie name                  : Fast X (2023) CinemaniaHDD.Net
    Encoded date                : UTC 2023-06-09 05:28:58
    Writing application         : mkvmerge v56.1.0 ('My Friend') 64-bit
    Writing library             : libebml v1.4.2 + libmatroska v1.6.4
    Attachments                 : CINEMANIAHD.png
    Site                        : CinemaniaHDD.Net
    Uploader                    : Melkor

    Video
    ID                          : 1
    Format                      : HEVC
    Format/Info                 : High Efficiency Video Coding
    Format profile              : Main 10@L5@High
    HDR format                  : Dolby Vision, Version 1.0, dvhe.08.06, BL+RPU, HDR10 compatible / SMPTE ST 2086, HDR10 compatible
    Codec ID                    : V_MPEGH/ISO/HEVC
    Duration                    : 2 h 20 min
    Bit rate                    : 24.7 Mb/s
    Width                       : 3 840 pixels
    Height                      : 2 160 pixels
    Display aspect ratio        : 16:9
    Frame rate mode             : Constant
    Frame rate                  : 23.976 (24000/1001) FPS
    Color space                 : YUV
    Chroma subsampling          : 4:2:0 (Type 2)
    Bit depth                   : 10 bits
    Bits/(Pixel*Frame)          : 0.124
    Stream size                 : 24.3 GiB (96%)
    Title                       : Web 2160p HDR [CinemaniaHDD]
    Language                    : English
    Default                     : Yes
    Forced                      : No
    Color range                 : Limited
    Color primaries             : BT.2020
    Transfer characteristics    : PQ
    Matrix coefficients         : BT.2020 non-constant
    Mastering display color pri : BT.2020
    Mastering display luminance : min: 0.0050 cd/m2, max: 1000 cd/m2
    Maximum Content Light Level : 1000 cd/m2
    Maximum Frame-Average Light : 187 cd/m2

    Audio #1
    ID                          : 2
    Format                      : AC-3
    Format/Info                 : Audio Coding 3
    Commercial name             : Dolby Digital
    Codec ID                    : A_AC3
    Duration                    : 2 h 20 min
    Bit rate mode               : Constant
    Bit rate                    : 384 kb/s
    Channel(s)                  : 6 channels
    Channel layout              : L R C LFE Ls Rs
    Sampling rate               : 48.0 kHz
    Frame rate                  : 31.250 FPS (1536 SPF)
    Compression mode            : Lossy
    Delay relative to video     : 1 s 31 ms
    Stream size                 : 387 MiB (1%)
    Title                       : Español Latino [CinemaniaHDD]
    Language                    : Spanish
    Service kind                : Complete Main
    Default                     : Yes
    Forced                      : Yes

    Audio #2
    ID                          : 3
    Format                      : E-AC-3 JOC
    Format/Info                 : Enhanced AC-3 with Joint Object Coding
    Commercial name             : Dolby Digital Plus with Dolby Atmos
    Codec ID                    : A_EAC3
    Duration                    : 2 h 20 min
    Bit rate mode               : Constant
    Bit rate                    : 768 kb/s
    Channel(s)                  : 6 channels
    Channel layout              : L R C LFE Ls Rs
    Sampling rate               : 48.0 kHz
    Frame rate                  : 31.250 FPS (1536 SPF)
    Compression mode            : Lossy
    Stream size                 : 774 MiB (3%)
    Title                       : Ingles [CinemaniaHDD]
    Language                    : English
    Service kind                : Complete Main
    Default                     : No
    Forced                      : No
    Complexity index            : 16
    Number of dynamic objects   : 15
    Bed channel count           : 1 channel
    Bed channel configuration   : LFE

    Text #1
    ID                          : 4
    Format                      : UTF-8
    Codec ID                    : S_TEXT/UTF8
    Codec ID/Info               : UTF-8 Plain Text
    Duration                    : 2 h 9 min
    Bit rate                    : 0 b/s
    Count of elements           : 40
    Stream size                 : 767 Bytes (0%)
    Title                       : Forzados-SRT [CinemaniaHDD]
    Language                    : Spanish
    Default                     : Yes
    Forced                      : Yes

    Text #2
    ID                          : 5
    Format                      : UTF-8
    Codec ID                    : S_TEXT/UTF8
    Codec ID/Info               : UTF-8 Plain Text
    Duration                    : 2 h 20 min
    Bit rate                    : 44 b/s
    Count of elements           : 1554
    Stream size                 : 45.6 KiB (0%)
    Title                       : Español-SRT [CinemaniaHDD]
    Language                    : Spanish
    Default                     : No
    Forced                      : No

    Text #3
    ID                          : 6
    Format                      : UTF-8
    Codec ID                    : S_TEXT/UTF8
    Codec ID/Info               : UTF-8 Plain Text
    Duration                    : 2 h 14 min
    Bit rate                    : 58 b/s
    Count of elements           : 1999
    Stream size                 : 58.1 KiB (0%)
    Title                       : Ingles-SRT [CinemaniaHDD]
    Language                    : English
    Default                     : No
    Forced                      : No

  • Peso: 25.4 GiB

Sinopsis

Descargar Rápidos y furiosos X (2023) WEB-DL 4K UHD HDR/DV Latino. A través de varias misiones y contra lo imposible, Dom Toretto y su familia han sido más astutos y más rápidos que todos los enemigos se le han cruzado en su camino. Ahora se enfrentan a su enemigo más letal: una amenaza aterradora que surge de las sombras del pasado que está alimentado de una venganza sangrienta, y está decidido a destruir a su familia y destruir todo, y a cualquier persona, a los que Dom ama.

Ficha técnica

Video trailer de la película

Enlaces de descarga

Rip de Bluray

Descargar Rápidos y furiosos X (2023) WEB-DL 4K UHD HDR/DV Latino




Aportes de DPeliculasHDmega la pass es:dpeliculashdmega.org Aportes de CinemaniaHD la pass es:cinemaniahdd.com Aportes recientes:cinemaniahdd.net
Guardado en : 4K HDR , 4K UHD , Action , Crime , Thriller

Películas relacionadas

  • Dune: Parte dos (2024) WEB-DL 4K UHD HDR Latino

    Dune: Parte dos (2024) WEB-DL 4K UHD HDR Latino

    2024
    Dune: Parte dos (2024) WEB-DL 4K UHD HDR Latino

    2h 47m 2024

    Descargar Dune: Parte dos (2024) WEB-DL 4K UHD HDR Latino. Sigue el viaje mítico de Paul Atreides mientras...

    Director: Vera Janisch

    Género: 4K HDR

    Actores: Zouhair Elakkari

  • Shōgun (2024)  Temporada 1 WEB-DL 4K UHD HDR Latino

    Shōgun (2024) Temporada 1 WEB-DL 4K UHD HDR Latino

    2024
    Shōgun (2024) Temporada 1 WEB-DL 4K UHD HDR Latino

    0h 0m 2024

    Descargar Shōgun (2024) Temporada 1 WEB-DL 4K UHD HDR Latino. En el Japón del siglo XVII, el náufrago...

    Director: Rachel Kondo

    Género: 4K HDR

    Actores: Tommy Bastow

  • Kung Fu Panda 4 (2024) WEB-DL 4K UHD HDR Latino

    Kung Fu Panda 4 (2024) WEB-DL 4K UHD HDR Latino

    2024
    Kung Fu Panda 4 (2024) WEB-DL 4K UHD HDR Latino

    1h 34m 2024

    Descargar Kung Fu Panda 4 (2024) WEB-DL 4K UHD HDR Latino. Po se prepara para ser el líder espiritual...

    Director: Stephanie Ma Stine

    Género: 4K HDR

    Actores: Viola Davis

  • Madame Web (2024) WEB-DL 4K UHD HDR Latino

    Madame Web (2024) WEB-DL 4K UHD HDR Latino

    2024
    Madame Web (2024) WEB-DL 4K UHD HDR Latino

    1h 56m 2024

    Descargar Madame Web (2024) WEB-DL 4K UHD HDR Latino. Una historia de origen de la clarividente conocida...

    Director: S.J. Clarkson

    Género: 4K HDR

    Actores: Zosia Mamet

  • Drive-Away Dolls (2024) WEB-DL 4K UHD HDR Latino

    Drive-Away Dolls (2024) WEB-DL 4K UHD HDR Latino

    2024
    Drive-Away Dolls (2024) WEB-DL 4K UHD HDR Latino

    1h 24m 2024

    Descargar Drive-Away Dolls (2024) WEB-DL 4K UHD HDR Latino.  Una chica fiestera viaja de Filadelfia...

    Director: Susan Ransom-Coyle

    Género: 4K HDR

    Actores: Savanna Ziegler

descargar Rápidos y furiosos X (2023) WEB-DL 4K UHD HDR/DV Latino WEBDL 1080p gratis, Rápidos y furiosos X (2023) WEB-DL 4K UHD HDR/DV Latino WEBDL mega 1 link, Rápidos y furiosos X (2023) WEB-DL 4K UHD HDR/DV Latino WEBDL pelicula completa, descargar Rápidos y furiosos X (2023) WEB-DL 4K UHD HDR/DV Latino WEBDL gratis en mega.

Rápidos y furiosos X (2023) WEB-DL 4K UHD HDR/DV Latino pelicula full hd, Rápidos y furiosos X (2023) WEB-DL 4K UHD HDR/DV Latino mega latino, Rápidos y furiosos X (2023) WEB-DL 4K UHD HDR/DV Latino 4k latino, Rápidos y furiosos X (2023) WEB-DL 4K UHD HDR/DV Latino pelicula completa, Rápidos y furiosos X (2023) WEB-DL 4K UHD HDR/DV Latino descargar gratis, descargar Rápidos y furiosos X (2023) WEB-DL 4K UHD HDR/DV Latino pelicula latino, Rápidos y furiosos X (2023) WEB-DL 4K UHD HDR/DV Latino 1 link mega, Rápidos y furiosos X (2023) WEB-DL 4K UHD HDR/DV Latino 1 link google drive, Rápidos y furiosos X (2023) WEB-DL 4K UHD HDR/DV Latino hd 1080p latino.
Comentarios 0