×

¿Problemas para descargar con Mozilla, EDGE? Deshabilita la opción "Abrir vinculos en una pestaña nueva" tal como lo muestra ésta imagen.

Rápidos y Furiosos 9 (2021) WEB-DL 4K UHD HDR Latino

429 vistas

Información de Rápidos y Furiosos 9 (2021) WEB-DL 4K UHD HDR Latino

Datos de la película

  • Calidad: WEBDL
  • Audio: Español Latino AC3 5.1 WEB-DL - Ingles AC3 5.1 WEB-DL
  • Subtitulos: Español Latino SRT- FORZADOS SRT
  • Resolución: 3836x1600p
  • Formato: MKV
  • Codec: HEVC
  • Encoder: Melkor
  • Mediainfo: Clic para Mostrar Datos Ver
  • Rápidos y furiosos 9 (2021) WEB UHD HDR Latino.mkv
    Format                      : Matroska
    Format version              : Version 4
    File size                   : 16.1 GiB
    Duration                    : 2 h 22 min
    Overall bit rate            : 16.1 Mb/s
    Movie name                  : Fast & Furious 9 (2021) CinemaniaHDD.Net
    Encoded date                : UTC 2021-07-29 06:20:56
    Writing application         : mkvmerge v56.1.0 ('My Friend') 64-bit
    Writing library             : libebml v1.4.2 + libmatroska v1.6.4
    Attachments                 : CINEMANIAHD.png

    Video
    ID                          : 1
    Format                      : HEVC
    Format/Info                 : High Efficiency Video Coding
    Format profile              : Main 10@L5@High
    HDR format                  : SMPTE ST 2086, HDR10 compatible
    Codec ID                    : V_MPEGH/ISO/HEVC
    Duration                    : 2 h 22 min
    Bit rate                    : 14.3 Mb/s
    Width                       : 3 836 pixels
    Height                      : 1 600 pixels
    Display aspect ratio        : 2.40:1
    Original display aspect rat : 2.40:1
    Frame rate mode             : Constant
    Frame rate                  : 23.976 (24000/1001) FPS
    Color space                 : YUV
    Chroma subsampling          : 4:2:0 (Type 2)
    Bit depth                   : 10 bits
    Bits/(Pixel*Frame)          : 0.097
    Stream size                 : 14.3 GiB (89%)
    Title                       : Web 2160p HDR [CinemaniaHDD]
    Default                     : Yes
    Forced                      : No
    Color range                 : Limited
    Color primaries             : BT.2020
    Transfer characteristics    : PQ
    Matrix coefficients         : BT.2020 non-constant
    Mastering display color pri : Display P3
    Mastering display luminance : min: 0.0050 cd/m2, max: 4000 cd/m2
    Maximum Content Light Level : 1002 cd/m2
    Maximum Frame-Average Light : 701 cd/m2

    Audio #1
    ID                          : 2
    Format                      : AC-3
    Format/Info                 : Audio Coding 3
    Commercial name             : Dolby Digital
    Codec ID                    : A_AC3
    Duration                    : 2 h 22 min
    Bit rate mode               : Constant
    Bit rate                    : 384 kb/s
    Channel(s)                  : 6 channels
    Channel layout              : L R C LFE Ls Rs
    Sampling rate               : 48.0 kHz
    Frame rate                  : 31.250 FPS (1536 SPF)
    Compression mode            : Lossy
    Stream size                 : 392 MiB (2%)
    Title                       : Español Latino [CinemaniaHDD]
    Language                    : Spanish
    Service kind                : Complete Main
    Default                     : Yes
    Forced                      : No

    Audio #2
    ID                          : 3
    Format                      : E-AC-3 JOC
    Format/Info                 : Enhanced AC-3 with Joint Object Coding
    Commercial name             : Dolby Digital Plus with Dolby Atmos
    Codec ID                    : A_EAC3
    Duration                    : 2 h 22 min
    Bit rate mode               : Constant
    Bit rate                    : 768 kb/s
    Channel(s)                  : 6 channels
    Channel layout              : L R C LFE Ls Rs
    Sampling rate               : 48.0 kHz
    Frame rate                  : 31.250 FPS (1536 SPF)
    Compression mode            : Lossy
    Stream size                 : 785 MiB (5%)
    Title                       : Ingles [CinemaniaHDD]
    Language                    : English
    Service kind                : Complete Main
    Default                     : No
    Forced                      : No
    Complexity index            : 16
    Number of dynamic objects   : 15
    Bed channel count           : 1 channel
    Bed channel configuration   : LFE

    Audio #3
    ID                          : 4
    Format                      : AC-3
    Format/Info                 : Audio Coding 3
    Commercial name             : Dolby Digital
    Codec ID                    : A_AC3
    Duration                    : 2 h 22 min
    Bit rate mode               : Constant
    Bit rate                    : 640 kb/s
    Channel(s)                  : 6 channels
    Channel layout              : L R C LFE Ls Rs
    Sampling rate               : 48.0 kHz
    Frame rate                  : 31.250 FPS (1536 SPF)
    Compression mode            : Lossy
    Stream size                 : 654 MiB (4%)
    Title                       : Ingles AC3 [CinemaniaHDD]
    Language                    : English
    Service kind                : Complete Main
    Default                     : No
    Forced                      : No

    Text #1
    ID                          : 5
    Format                      : UTF-8
    Codec ID                    : S_TEXT/UTF8
    Codec ID/Info               : UTF-8 Plain Text
    Duration                    : 2 h 6 min
    Bit rate                    : 1 b/s
    Count of elements           : 47
    Stream size                 : 990 Bytes (0%)
    Title                       : Forzados-SRT [CinemaniaHDD]
    Language                    : Spanish
    Default                     : Yes
    Forced                      : No

    Text #2
    ID                          : 6
    Format                      : UTF-8
    Codec ID                    : S_TEXT/UTF8
    Codec ID/Info               : UTF-8 Plain Text
    Duration                    : 2 h 12 min
    Bit rate                    : 39 b/s
    Count of elements           : 1348
    Stream size                 : 38.2 KiB (0%)
    Title                       : Español-SRT [CinemaniaHDD]
    Language                    : Spanish
    Default                     : No
    Forced                      : No

    Text #3
    ID                          : 7
    Format                      : UTF-8
    Codec ID                    : S_TEXT/UTF8
    Codec ID/Info               : UTF-8 Plain Text
    Duration                    : 2 h 22 min
    Bit rate                    : 56 b/s
    Count of elements           : 2114
    Stream size                 : 58.8 KiB (0%)
    Title                       : Ingles-SRT [CinemaniaHDD]
    Language                    : English
    Default                     : No
    Forced                      : No

  • Peso: 16.1 GiB

Sinopsis

Descargar Rápidos y Furiosos 9 (2021) WEB-DL 4K UHD HDR Latino. Dom Toretto lleva una vida tranquila con Letty y su hijo, el pequeño Brian, pero saben que el peligro siempre acecha. Esta vez, esa amenaza obligará a Dom a enfrentarse a los pecados de su pasado si quiere salvar a quienes más quiere. El equipo se vuelve a reunir para impedir un complot a escala mundial, liderado por uno de los asesinos más peligrosos y mejor conductor a los que se han enfrentado; un hombre que además es el hermano desaparecido de Dom, Jakob. Novena entrega de la famosa franquicia.

Ficha técnica

Video trailer de la película

Enlaces de descarga

Rip de Bluray

Descargar Rápidos y Furiosos 9 (2021) WEB-DL 4K UHD HDR Latino




Aportes de DPeliculasHDmega la pass es:dpeliculashdmega.org Aportes de CinemaniaHD la pass es:cinemaniahdd.com
Guardado en : 4K HDR , 4K UHD , Acción , Aventura , Crimen , Suspenso

Películas relacionadas

descargar Rápidos y Furiosos 9 (2021) WEB-DL 4K UHD HDR Latino WEBDL 1080p gratis, Rápidos y Furiosos 9 (2021) WEB-DL 4K UHD HDR Latino WEBDL mega 1 link, Rápidos y Furiosos 9 (2021) WEB-DL 4K UHD HDR Latino WEBDL pelicula completa, descargar Rápidos y Furiosos 9 (2021) WEB-DL 4K UHD HDR Latino WEBDL gratis en mega.

Rápidos y Furiosos 9 (2021) WEB-DL 4K UHD HDR Latino pelicula full hd, Rápidos y Furiosos 9 (2021) WEB-DL 4K UHD HDR Latino mega latino, Rápidos y Furiosos 9 (2021) WEB-DL 4K UHD HDR Latino 4k latino, Rápidos y Furiosos 9 (2021) WEB-DL 4K UHD HDR Latino pelicula completa, Rápidos y Furiosos 9 (2021) WEB-DL 4K UHD HDR Latino descargar gratis, descargar Rápidos y Furiosos 9 (2021) WEB-DL 4K UHD HDR Latino pelicula latino, Rápidos y Furiosos 9 (2021) WEB-DL 4K UHD HDR Latino 1 link mega, Rápidos y Furiosos 9 (2021) WEB-DL 4K UHD HDR Latino 1 link google drive, Rápidos y Furiosos 9 (2021) WEB-DL 4K UHD HDR Latino hd 1080p latino.
Comentarios 4
  • ronald - 06 agosto, 2021

    poqrue no sirven estas peliculas ? ya van 3 que me salen iigual no se activ a eñ hrd en la tv y no sirve

    • Dracarys - 06 agosto, 2021

      Es problema de tu TV y no de la película

  • Carlos - 30 julio, 2021

    No funciona ninguno de los links de descarga que procede??

    • Dracarys - 30 julio, 2021

      Todos están ACTIVOS